<?xml version="1.0" standalone="no"?>
<!DOCTYPE svg PUBLIC "-//W3C//DTD SVG 1.1//EN" "http://www.w3.org/Graphics/SVG/1.1/DTD/svg11.dtd">
<svg xmlns="http://www.w3.org/2000/svg">
<metadata></metadata>
<defs>
<font id="Font-APEX-Small" horiz-adv-x="1000" >
<font-face font-family="Font-APEX-Small" font-weight="400" font-stretch="normal" units-per-em="1000" ascent="850" descent="-150" />
<missing-glyph horiz-adv-x="1000" />
<glyph glyph-name="modifier-25-percent" unicode="&#xe9ca;" d="M500 850c-276 0-500-224-500-500s224-500 500-500 500 224 500 500-224 500-500 500z m0-500v333c184 0 333-149 333-333h-333z" horiz-adv-x="1000" />
<glyph glyph-name="modifier-50-percent" unicode="&#xe9ec;" d="M500 850c-276 0-500-224-500-500s224-500 500-500 500 224 500 500-224 500-500 500z m0-833v666c184 0 333-149 333-333s-149-333-333-333z" horiz-adv-x="1000" />
<glyph glyph-name="modifier-75-percent" unicode="&#xe9ed;" d="M500 850c-276 0-500-224-500-500s224-500 500-500 500 224 500 500-224 500-500 500z m0-833c-184 0-333 149-333 333h333v333c184 0 333-149 333-333s-149-333-333-333z" horiz-adv-x="1000" />
<glyph glyph-name="modifier-100-percent" unicode="&#xe9ee;" d="M500 850c-276 0-500-224-500-500s224-500 500-500 500 224 500 500-224 500-500 500z m0-833c-184 0-333 149-333 333s149 333 333 333 333-149 333-333-149-333-333-333z" horiz-adv-x="1000" />
<glyph glyph-name="modifier-arrow-down" unicode="&#xe9ef;" d="M500 850c-276 0-500-224-500-500s224-500 500-500 500 224 500 500-224 500-500 500z m262-539l-223-223c-11-10-25-16-39-16s-28 6-39 16l-223 223c-21 21-21 57 0 78s57 22 79 0l127-127v310c0 31 25 56 56 56s56-25 56-56v-310l127 127c22 22 57 22 78 0s22-56 1-78z" horiz-adv-x="1000" />
<glyph glyph-name="modifier-arrow-left" unicode="&#xe9f0;" d="M500 850c-276 0-500-224-500-500s224-500 500-500c276 0 500 224 500 500s-224 500-500 500z m222-555h-310l127-128c22-21 22-57 0-78-11-11-25-17-39-17s-29 6-39 17l-223 222c-21 22-21 57 0 78l223 223c21 21 56 21 78 0s22-57 0-79l-127-127h310c31 0 56-25 56-56s-25-55-56-55z" horiz-adv-x="1000" />
<glyph glyph-name="modifier-arrow-right" unicode="&#xe9f1;" d="M500 850c-276 0-500-224-500-500s224-500 500-500c276 0 500 224 500 500s-224 500-500 500z m262-539l-223-222c-11-11-25-17-39-17s-28 6-39 17c-22 21-22 56 0 78l127 127h-310c-31 0-56 25-56 56s25 56 56 56h310l-127 127c-22 22-22 57 0 79s57 21 78 0l222-223c22-21 22-56 1-78z" horiz-adv-x="1000" />
<glyph glyph-name="modifier-arrow-up" unicode="&#xe9f2;" d="M500 850c-276 0-500-224-500-500s224-500 500-500c276 0 500 224 500 500s-224 500-500 500z m261-539c-10-11-25-16-39-16s-28 5-39 16l-128 127v-310c0-31-24-56-55-56s-56 25-56 56v310l-127-127c-22-22-57-22-79 0s-21 57 0 79l223 222c21 22 57 22 78 0l223-222c21-22 21-57 0-79z" horiz-adv-x="1000" />
<glyph glyph-name="modifier-blank" unicode="&#xe9f3;" d="M1000 350c0-276-224-500-500-500s-500 224-500 500c0 276 224 500 500 500s500-224 500-500z" horiz-adv-x="1000" />
<glyph glyph-name="modifier-check" unicode="&#xe9f4;" d="M500 850c-276 0-500-224-500-500s224-500 500-500 500 224 500 500-224 500-500 500z m262-373l-334-333c-11-11-25-16-39-16s-28 5-39 16l-111 111c-22 22-22 57 0 79s56 21 78 0l72-72 294 294c22 22 57 22 79 0s21-57 0-79z" horiz-adv-x="1000" />
<glyph glyph-name="modifier-circle" unicode="&#xe9f5;" d="M500 850c-276 0-500-224-500-500s224-500 500-500 500 224 500 500-224 500-500 500z m0-667c-92 0-167 75-167 167s75 167 167 167 167-75 167-167-75-167-167-167z" horiz-adv-x="1000" />
<glyph glyph-name="modifier-clock" unicode="&#xe9f6;" d="M500 850c-276 0-500-224-500-500s224-500 500-500c276 0 500 224 500 500s-224 500-500 500z m207-707c-11-11-25-16-40-16s-28 5-39 16l-167 168c-11 10-17 24-17 39v222c0 31 25 56 56 56s56-25 56-56v-199l151-151c21-22 21-57 0-79z" horiz-adv-x="1000" />
<glyph glyph-name="modifier-ellipsis-h" unicode="&#xe9f7;" d="M500 850c-276 0-500-224-500-500s224-500 500-500 500 224 500 500-224 500-500 500z m-222-556c-31 0-56 25-56 56s25 55 56 55c31 0 55-24 55-55s-24-56-55-56z m222 0c-31 0-55 25-55 56s24 55 55 55c31 0 56-24 56-55s-25-56-56-56z m222 0c-30 0-55 25-55 56s25 55 55 55c31 0 56-24 56-55s-25-56-56-56z" horiz-adv-x="1000" />
<glyph glyph-name="modifier-ellipsis-v" unicode="&#xe9f8;" d="M500 850c-276 0-500-224-500-500s224-500 500-500 500 224 500 500-224 500-500 500z m0-778c-31 0-56 25-56 56s25 55 56 55c31 0 55-25 55-55s-24-56-55-56z m0 222c-31 0-56 25-56 56s25 55 56 55c31 0 55-24 55-55s-24-56-55-56z m0 223c-31 0-56 24-56 55s25 56 56 56c31 0 55-25 55-56s-24-55-55-55z" horiz-adv-x="1000" />
<glyph glyph-name="modifier-heart" unicode="&#xe9f9;" d="M500 850c-276 0-500-224-500-500s224-500 500-500 500 224 500 500-224 500-500 500z m239-549l-239-229-239 229c-52 50-52 129 0 179 51 49 134 49 186 0l53-51 53 51c51 49 135 49 186 0 52-49 52-129 0-179z" horiz-adv-x="1000" />
<glyph glyph-name="modifier-information" unicode="&#xe9fa;" d="M500 850c-276 0-500-224-500-500s224-500 500-500c276 0 500 224 500 500s-224 500-500 500z m56-722c0-31-25-56-56-56s-56 25-56 56v222c0 31 25 56 56 56s56-25 56-56v-222z m-56 389c-31 0-56 25-56 55s25 56 56 56 56-25 56-56c0-30-25-55-56-55z" horiz-adv-x="1000" />
<glyph glyph-name="modifier-minus" unicode="&#xe9fb;" d="M500 850c-276 0-500-224-500-500s224-500 500-500c276 0 500 224 500 500s-224 500-500 500z m222-555h-444c-31 0-56 24-56 55s25 56 56 56h444c31 0 56-25 56-56s-25-55-56-55z" horiz-adv-x="1000" />
<glyph glyph-name="modifier-pause" unicode="&#xe9fc;" d="M500 850c-276 0-500-224-500-500s224-500 500-500 500 224 500 500-224 500-500 500z m-56-611c0-31-24-56-55-56s-56 25-56 56v222c0 31 25 56 56 56s55-25 55-56v-222z m223 0c0-31-25-56-56-56s-55 25-55 56v222c0 31 24 56 55 56s56-25 56-56v-222z" horiz-adv-x="1000" />
<glyph glyph-name="modifier-play" unicode="&#xe9fd;" d="M500 850c-276 0-500-224-500-500s224-500 500-500 500 224 500 500-224 500-500 500z m195-548l-277-166c-9-6-19-8-29-8-9 0-19 2-27 7-18 10-29 28-29 48v334c0 20 11 38 29 48s38 10 56-1l277-166c17-11 27-29 27-48s-10-38-27-48z" horiz-adv-x="1000" />
<glyph glyph-name="modifier-plus" unicode="&#xe9fe;" d="M500 850c-276 0-500-224-500-500s224-500 500-500 500 224 500 500-224 500-500 500z m222-555h-166v-167c0-31-25-56-56-56s-56 25-56 56v167h-166c-31 0-56 24-56 55s25 56 56 56h166v166c0 31 25 56 56 56s56-25 56-56v-166h166c31 0 56-25 56-56s-25-55-56-55z" horiz-adv-x="1000" />
<glyph glyph-name="modifier-sleep" unicode="&#xe9ff;" d="M500 850c-276 0-500-224-500-500s224-500 500-500 500 224 500 500-224 500-500 500z m8-778c-158 0-286 128-286 286 0 126 83 232 198 270-27-41-42-89-42-141 0-143 116-259 259-259 52 0 100 15 141 41-38-114-144-197-270-197z" horiz-adv-x="1000" />
<glyph glyph-name="modifier-star" unicode="&#xea00;" d="M500 850c-276 0-500-224-500-500s224-500 500-500c276 0 500 224 500 500s-224 500-500 500z m244-577c27-15 36-49 21-76-11-17-29-27-49-27-9 0-19 2-27 7l-133 77v-154c0-30-25-55-56-55s-56 25-56 55v154l-133-77c-8-5-18-7-27-7-20 0-38 10-49 27-15 27-6 61 21 76l133 77-133 77c-27 15-36 49-21 76 16 27 50 35 76 20l133-77v154c0 31 25 56 56 56s56-25 56-56v-154l133 77c26 15 60 7 76-20 15-27 6-61-21-76l-133-77 133-77z" horiz-adv-x="1000" />
<glyph glyph-name="modifier-stop" unicode="&#xea01;" d="M500 850c-276 0-500-224-500-500s224-500 500-500 500 224 500 500-224 500-500 500z m167-611c0-31-25-56-56-56h-222c-31 0-56 25-56 56v222c0 31 25 56 56 56h222c31 0 56-25 56-56v-222z" horiz-adv-x="1000" />
<glyph glyph-name="modifier-warning" unicode="&#xea02;" d="M500 850c-276 0-500-224-500-500s224-500 500-500 500 224 500 500-224 500-500 500z m39-761c-10-11-25-17-39-17s-29 6-39 17c-11 10-17 24-17 39 0 8 2 14 5 21 2 7 7 13 12 18 21 21 58 21 78 0 5-5 10-11 12-18 3-7 5-13 5-21 0-15-6-29-17-39z m17 261c0-31-25-55-56-55s-56 24-56 55v222c0 31 25 56 56 56s56-25 56-56v-222z" horiz-adv-x="1000" />
<glyph glyph-name="modifier-x" unicode="&#xea03;" d="M500 850c-276 0-500-224-500-500s224-500 500-500 500 224 500 500-224 500-500 500z m234-655c21-22 21-57 0-79-11-10-25-16-40-16s-28 6-39 16l-155 156-155-156c-11-10-25-16-39-16s-29 6-40 16c-21 22-21 57 0 79l155 155-155 155c-21 22-21 57 0 79s57 22 79 0l155-155 155 155c22 22 57 22 79 0s21-57 0-79l-155-155 155-155z" horiz-adv-x="1000" />
<glyph glyph-name="american-sign-language-interpreting" unicode="&#xf2a3;" d="M781 788c-51 0-93-43-93-94v-162c-21 8-46 7-66-1-11 40-48 69-91 69-11 0-21-2-31-5v161c0 52-42 94-94 94s-93-42-93-94v-463l-81 139c-12 22-33 37-57 41-22 5-46 0-68-12-43-25-58-87-31-133l200-346c43-80 131-132 224-132h125c138 0 250 112 250 250v594c0 51-42 94-94 94z m-125-313c18 0 32-14 32-31v-188c0-17-14-31-32-31s-31 14-31 31v188c0 17 14 31 31 31z m-125 63c18 0 32-14 32-32v-250c0-17-14-31-32-31s-31 14-31 31v250c0 18 14 32 31 32z m282-438c0-103-85-188-188-188h-125c-70 0-137 39-170 100l-200 347c-9 16-5 40 9 48 6 4 13 6 19 6 2 0 3-1 5-1 7-1 12-5 15-11l80-139c15-25 43-37 71-29 27 7 46 31 46 60v463c0 18 14 32 31 32s32-14 32-32v-500c0-51 42-93 93-93 24 0 46 9 63 24 16-15 38-24 62-24 52 0 94 42 94 93v438c0 17 14 31 31 31s32-14 32-31v-594z" horiz-adv-x="1000" />
<glyph glyph-name="assistive-listening-systems" unicode="&#xf2a2;" d="M375 225c0 0 0 1 0 1 0 69-56 125-125 125s-125-56-125-125c0-24 7-46 18-65l0 1-71-71c-6-6-10-14-10-22 0-17 14-31 32-31 8 0 16 3 22 9l71 71c18-11 40-18 64-18 68 0 124 56 124 124 0 1 0 1 0 1v0z m-187 0c0 35 28 63 62 63s63-28 63-63c0-34-28-62-63-62v0c-34 0-62 28-62 62v0z m187 563c-160-1-292-121-309-277l0-1c0-1 0-2 0-4 0-17 14-31 31-31 16 0 29 12 31 28l0 0c14 126 120 222 248 222 137 0 249-111 249-249 0-1 0-2 0-2l0 0c0-2 0-4 0-5 0-63-21-120-58-165l1 0c-42-54-68-124-68-199 0-2 0-4 0-5l0 0c0 0 0 0 0-1 0-68-56-124-124-124-29 0-55 10-76 26l0 0c-5 4-12 6-19 6-17 0-31-14-31-31 0-11 5-20 13-25l0 0c30-24 70-38 112-38h0c104 0 188 83 188 187v0c0 2 0 3 0 5 0 63 21 120 57 165l0 0c42 54 68 124 68 199 0 2 0 3 0 5l0 0c0 0 0 0 0 0 0 173-140 313-313 314h0z m106-432c5-4 11-6 18-6 10 0 20 5 25 12l0 1c24 30 38 70 39 112v0c0 104-84 188-188 188s-187-84-187-188v0c0-17 14-31 31-31s31 14 31 31v0c0 0 0 1 0 1 0 69 56 125 125 125s125-56 125-125c0-29-10-55-26-76l0 0c-4-5-6-12-6-19 0-10 5-19 12-25l0 0z m316 276c-4 14-16 24-30 24-18 0-32-14-32-31 0-3 1-5 1-8l0 1c9-34 14-72 14-112v0c0 0 0 0 0 0 0-78-19-151-52-215l1 3c-3-5-4-10-4-16 0-17 14-31 31-31 13 0 23 8 28 18l0 0c37 70 58 153 58 241 0 0 0 0 0 0v0c0 45-5 89-16 130l1-4z m116 51c-4 14-16 23-31 23-17 0-31-14-31-31 0-3 1-6 1-9l0 0c14-48 23-103 23-160l0 0c0 0 0 0 0 0 0-95-23-185-63-265l1 3c-2-4-3-8-3-13 0-18 14-32 32-32 12 0 22 7 28 18l0 0c42 84 68 183 68 289 0 0 0 0 0 0v0c-1 63-10 124-27 182l2-5z" horiz-adv-x="1000" />
<glyph glyph-name="audio-description" unicode="&#xf29e;" d="M875 725h-750c-69 0-125-56-125-125v0-500c0-69 56-125 125-125v0h266l84-113c6-7 15-12 25-12s19 5 25 12l0 0 84 113h266c69 0 125 56 125 125v0 500c0 69-56 125-125 125v0z m63-625c0-34-28-62-63-62v0h-281c-10 0-19-5-25-13l0 0-69-92-69 92c-5 8-15 13-25 13h-281c-34 0-62 28-62 62v0 500c0 35 28 63 62 63v0h750c35 0 63-28 63-63v0z m-313 438h-31c-17 0-31-14-31-32v0-312c0-17 14-31 31-31v0h31c104 0 188 83 188 187s-84 188-188 188v0z m0-313v250c69 0 125-56 125-125s-56-125-125-125v0z m-236 292c-4 12-16 21-30 21 0 0 0 0 0 0h-31c0 0 0 0 0 0-13 0-25-9-29-21l0 0-110-313c-1-3-1-7-1-10 0-17 14-31 31-31 13 0 25 8 29 20l0 0 37 105h118l36-105c5-12 16-20 30-20 17 0 31 14 31 31 0 3-1 7-2 10l0 0z m-82-167l37 106 37-106z" horiz-adv-x="1000" />
<glyph glyph-name="blind" unicode="&#xf296;" d="M406 663c52 0 94 42 94 93s-42 94-94 94c-51 0-93-42-93-94v0c0-51 42-93 93-93v0z m0 125c18 0 32-14 32-32s-14-31-32-31c-17 0-31 14-31 31v0c0 18 14 32 31 32v0z m460-899l-125 374c-3 9-12 16-22 16-13 0-24-10-24-23 0-3 1-5 2-8l0 0 125-374c3-10 12-16 22-16 0 0 0 0 0 0v0c0 0 0 0 0 0 3 0 5 0 7 1l0 0c10 3 16 12 16 22 0 3 0 6-1 8l0 0z m-326 517c23-34 61-56 104-56 0 0 0 0 0 0h75c17 0 31 14 31 31s-14 32-31 32v0h-75c0 0 0 0 0 0-22 0-41 10-52 27l0 0-79 118c-17 26-45 42-78 42h-60c-31 0-58-15-75-37l0 0-169-225c-4-6-6-12-6-19 0-17 14-31 31-31 10 0 20 4 25 12l0 0 132 175v-380c0 0 0 0 0 0 0-9-4-17-10-22l0 0-107-107c-6-6-10-14-10-23 0-17 14-31 31-31 9 0 17 3 23 10l0 0 107 106c17 17 28 41 28 67v130h71l118-354c4-12 16-21 30-21h0c0 0 0 0 0 0 3 0 7 1 10 2l0 0c12 4 21 15 21 29 0 4 0 7-2 10l0 0-123 370v204z m-165-118v250h60c1 0 2-1 3-1v-249z" horiz-adv-x="1000" />
<glyph glyph-name="braille" unicode="&#xf2a1;" d="M313 850c-70 0-125-56-125-125s55-125 125-125c69 0 125 56 125 125v0c0 69-56 125-125 125v0z m0-187c-35 0-63 28-63 62s28 63 63 63c34 0 62-28 62-63v0c0-34-28-62-62-62v0z m375-63c69 0 125 56 125 125s-56 125-125 125c-70 0-125-56-125-125v0c0-69 55-125 125-125v0z m0 188c34 0 62-28 62-63s-28-62-62-62c-35 0-63 28-63 62v0c0 35 28 63 63 63v0z m-375-313c-70 0-125-56-125-125s55-125 125-125c69 0 125 56 125 125v0c0 69-56 125-125 125v0z m0-187c-35 0-63 28-63 62s28 63 63 63c34 0 62-28 62-63v0c0-34-28-62-62-62v0z m375 187c-70 0-125-56-125-125s55-125 125-125c69 0 125 56 125 125v0c0 69-56 125-125 125v0z m0-187c-35 0-63 28-63 62s28 63 63 63c34 0 62-28 62-63v0c0-34-28-62-62-62v0z m-375-188c-70 0-125-56-125-125s55-125 125-125c69 0 125 56 125 125v0c0 69-56 125-125 125v0z m0-188c-35 0-63 28-63 63s28 63 63 63c34 0 62-28 62-63v0c0-35-28-63-62-63v0z m375 188c-70 0-125-56-125-125s55-125 125-125c69 0 125 56 125 125v0c0 69-56 125-125 125v0z m0-188c-35 0-63 28-63 63s28 63 63 63c34 0 62-28 62-63v0c0-35-28-63-62-63v0z" horiz-adv-x="1000" />
<glyph glyph-name="deaf" unicode="&#xf2a4;" d="M928 778c-5 6-13 10-22 10s-16-4-22-10l-812-812c-6-6-10-14-10-22 0-18 14-32 32-32 8 0 16 4 22 10l812 812c6 6 10 14 10 22s-4 17-10 22l0 0z m-533-135c21 12 47 19 74 19 18 0 36-3 53-9l-1 0c3-1 6-2 10-2 18 0 32 14 32 31 0 14-9 25-21 30l0 0c-22 8-47 13-73 13-38 0-74-10-104-28l1 1c-69-38-116-109-116-192v0c0 0 0-1 0-2 0-42 14-80 37-111l0 1c2-3 3-6 3-9 0-3-2-7-4-9l0 0-29-38c-4-5-7-12-7-19 0-18 14-32 31-32 10 0 19 5 25 12l0 0 29 38c11 13 17 30 17 48 0 17-5 32-14 45l1-1c-17 21-26 47-26 75 0 1 0 2 0 2l0 0c0 59 33 110 81 136l1 1z m386-169c-2 1-4 1-6 1-15 0-28-11-31-25l0 0c-14-56-42-104-81-142l0 0c-62-61-100-146-101-239v0c0-87-69-156-156-156v0c-17 0-31-14-31-32s14-31 31-31v0c121 0 219 98 219 219v0c0 0 0 0 0 0 0 78 33 149 86 198l0 0c45 46 78 104 94 168l0 3c1 1 1 4 1 6 0 15-11 28-25 30l0 0z m-625 1c18 0 32 14 32 31v0c0 156 126 281 281 282h0c63-1 120-22 167-57l-1 0c5-4 12-6 19-6 17 0 31 14 31 31 0 10-5 20-12 25l0 0c-56 43-127 69-204 69h0c-190 0-344-154-344-344v0c0-17 14-31 31-31v0z" horiz-adv-x="1000" />
<glyph glyph-name="low-vision" unicode="&#xf2a8;" d="M992 371c-69 78-254 260-492 260-44 0-86-6-126-17l3 1-131 220c-6 9-16 15-27 15-17 0-31-14-31-31 0-6 1-12 4-16l0 0 124-208c-122-52-225-128-307-223l-1-1c-5-6-8-13-8-21s3-15 8-21l0 0c69-78 255-260 492-260 44 0 86 6 126 17l-3-1 132-220c5-9 15-15 26-15 18 0 32 14 32 31 0 6-2 12-5 16l0 0-124 208c122 52 225 129 307 223l1 1c5 6 8 13 8 21s-3 15-8 21l0 0z m-918-21c34 36 70 68 109 98l2 1 177-294c-114 44-210 110-288 195l0 0z m426-219c-19 1-38 2-56 5l2 0-209 349c32 20 69 39 108 54l4 1 239-398c-26-6-57-10-88-11l0 0z m151 29l-62 103c22 22 36 53 36 87 0 0 0 0 0 0v0c0 69-56 125-125 125v0c-13 0-25-2-36-6l1 1-53 88c26 6 57 10 88 11l0 0c196 0 359-148 426-219-75-81-167-146-270-188l-5-2z" horiz-adv-x="1000" />
<glyph glyph-name="sign-language" unicode="&#xf2a7;" d="M313 506c0-17 14-31 31-31s31 14 31 31v0 250c0 18 14 32 31 32s32-14 32-32v0-250c0-17 14-31 31-31s31 14 31 31v0 188c0 17 14 31 31 31s32-14 32-31v0-188c0-17 14-31 31-31s31 14 31 31v0 188c0 52-42 94-94 94v0c-12 0-24-3-35-8l0 1c-11 40-47 69-90 69s-79-29-90-69l0 0c-10 4-22 7-35 7h0c-51 0-93-42-93-94v0-211l-28 27c-17 17-40 28-66 28-52 0-94-42-94-94 0-26 11-50 27-67l170-169c5-5 13-8 21-8 18 0 32 14 32 31 0 8-4 16-9 22l-169 169c-6 5-10 13-10 22 0 17 14 31 32 31 8 0 16-3 22-9l81-81c5-6 13-9 22-9 17 0 31 14 31 31v0 287c0 17 14 31 31 31s32-14 32-31v0z m660-235c-9 8-19 15-29 19l-1 0c8 14 13 30 13 48 0 25-11 49-28 65l0 0c-17 16-39 26-65 26-17 0-33-5-47-13l0 1c-14 34-48 58-87 58-25 0-49-10-66-27l0 0-163-164v35c0 52-42 94-94 94s-94-42-94-94v0-313c0-17 14-31 32-31s31 14 31 31v0 313c0 17 14 31 31 31s31-14 31-31v0-115c0-17 14-31 32-31v0c14 0 26 10 29 23l0 1c3 1 5 2 7 4l0 0 202 202c6 6 14 10 22 10 18 0 32-14 32-32 0-8-4-16-10-22l-132-132c-6-6-9-14-9-22 0-17 14-31 31-31 9 0 16 3 22 8l177 177c5 6 13 9 22 9s16-3 22-9l0 0c6-6 9-13 9-22s-3-16-9-22v0l-44-44-132-133c-6-5-10-13-10-22 0-17 14-31 31-31 9 0 17 3 23 9l132 133c6 5 14 9 23 9 17 0 31-14 31-31 0-9-4-17-9-23v0l-279-279c-6-5-10-13-10-22 0-17 14-31 32-31 8 0 16 3 22 9v0l279 279c17 17 27 41 27 66 0 26-10 50-27 67l0 0z" horiz-adv-x="1000" />
<glyph glyph-name="universal-access" unicode="&#xf29a;" d="M563 600c0-34-28-62-63-62s-62 28-62 62c0 35 28 63 62 63s63-28 63-63z m-63 250c-276 0-500-224-500-500s224-500 500-500c276 0 500 224 500 500v0c0 276-224 500-500 500h0z m0-938c-242 0-437 196-437 438s195 438 437 438c242 0 438-196 438-438v0c-1-241-196-437-438-438h0z m208 624l-97-36c-33-13-71-20-111-20s-78 7-113 20l2 0-97 36c-3 1-7 2-11 2-18 0-32-14-32-31 0-14 9-26 21-30l0 0 97-36c20-7 44-14 68-18l2 0v-11c0-32-5-63-16-92l0 2-75-211c-2-4-2-7-2-11 0-17 14-31 31-31 13 0 25 8 29 20l0 0 62 172c5 11 16 19 29 19 0 0 1 0 1 0l0 0h8c0 0 1 0 1 0 13 0 24-8 29-19l0 0 62-172c4-12 15-20 29-20 17 0 31 14 31 31 0 4 0 7-2 11l0 0-76 211c-10 27-15 58-16 90v11c27 4 51 11 73 19l-2-1 96 36c12 5 20 16 20 29 0 17-14 31-31 31-4 0-7 0-10-1l0 0z" horiz-adv-x="1000" />
<glyph glyph-name="volume-control-phone" unicode="&#xf2a0;" d="M791 704c-6 5-13 8-22 8-17 0-31-14-31-31 0-8 4-16 9-22l0 0c79-79 128-188 128-309s-49-230-128-309v0c-6-6-9-14-9-22 0-17 14-31 31-31 9 0 17 3 22 8l0 0c91 91 147 216 147 354s-56 263-147 354v0z m-132-133c-6 5-14 9-22 9-17 0-31-14-31-31 0-9 3-17 8-22l0 0c46-46 73-108 73-177s-28-132-73-177l0 0c-5-5-8-13-8-22 0-17 14-31 31-31 8 0 16 4 22 9l0 0c56 57 91 135 91 221s-35 164-91 221l0 0z m-297-96c0 0 0 0 0 0 15 0 27 10 31 24l0 0c17 74 45 140 83 199l-2-3c3 5 5 11 5 17 0 11-6 20-14 26l0 0-167 109c-4 3-10 5-17 5-9 0-17-4-22-10l0 0c-122-128-196-301-196-492s74-364 196-493l0 1c5-6 13-10 22-10 0 0 0 0 0 0h0c7 0 13 2 18 5l-1 0 167 109c8 6 14 15 14 26 0 6-2 12-5 17l0 0c-36 56-64 122-80 192l-1 4c-4 14-16 24-31 24 0 0 0 0 0 0h-95c-11 38-17 81-17 125s6 88 18 128l-1-3z m-148-291c5-12 16-21 30-21h94c17-63 40-118 69-169l-2 4-119-78c-100 114-161 265-161 430s61 316 162 431l-1-1 120-78c-28-47-51-102-67-159l-1-5h-94c-14 0-26-9-30-22l0 0c-17-50-27-107-27-166s10-116 28-170l-1 4z" horiz-adv-x="1000" />
<glyph glyph-name="wheelchair-alt" unicode="&#xf29b;" d="M750 600c69 0 125 56 125 125s-56 125-125 125c-69 0-125-56-125-125v0c0-69 56-125 125-125v0z m0 188c35 0 63-28 63-63s-28-62-63-62c-34 0-62 28-62 62v0c0 35 28 63 62 63v0z m-437-657c0-17-14-31-32-31s-31 14-31 31c0 18 14 32 31 32s32-14 32-32z m-32 282c-155 0-281-126-281-282s126-281 281-281c156 0 282 126 282 281v0c-1 156-126 281-282 282h0z m0-501c-121 0-218 98-218 219s97 219 218 219c121 0 219-98 219-219v0c0-121-98-219-219-219v0z m-9 603l77 78c12 11 27 18 45 18 10 0 19-2 28-7l-1 0 151-75-82-82c-5-5-9-13-9-22 0-18 14-32 31-32 9 0 17 4 23 10l112 112c6 6 9 14 9 23 0 12-7 22-17 27l0 0-190 95c-16 9-35 14-56 14-34 0-65-14-88-37l-77-77c-6-6-9-14-9-22 0-18 14-32 31-32 9 0 16 4 22 9v0z m603-540h-37l-42 212c-12 58-62 100-123 101h-17c-17 0-31-14-31-32s14-31 31-31v0h17c0 0 0 0 0 0 30 0 55-21 61-50l0 0 48-238c3-14 15-25 31-25 0 0 0 0 0 0h62c17 0 31 14 31 32s-14 31-31 31v0z" horiz-adv-x="1000" />
<glyph glyph-name="calendar-alarm" unicode="&#xe9aa;" d="M947 10c-6 6-9 14-9 22v0 99c0 87-70 157-157 157s-156-70-156-157v0-99c0-8-3-16-9-22l0 0-44-44c-6-6-10-14-10-22 0-18 14-32 32-32 0 0 0 0 0 0h156v-31c0-17 14-31 31-31s32 14 32 31v0 31h156c0 0 0 0 0 0 17 0 31 14 31 32 0 8-3 16-9 22l0 0z m-279-35c12 15 20 35 20 57 0 0 0 0 0 0v0 99c0 52 42 94 93 94s94-42 94-94v0-99c0 0 0 0 0 0 0-22 7-42 20-57l-1 0z m207 750h-62v31c0 18-14 32-32 32s-31-14-31-32v0-31h-500v31c0 18-14 32-31 32s-31-14-31-32v0-31h-63c-69 0-125-56-125-125v0-500c0-69 56-125 125-125v0h281c18 0 32 14 32 31s-14 32-32 32v0h-281c-34 0-62 28-62 62v0 375h875v-31c0-17 14-31 31-31s31 14 31 31v0 156c0 69-56 125-125 125v0z m-812-187v62c0 35 28 63 62 63v0h63v-32c0-17 14-31 31-31s31 14 31 31v0 32h500v-32c0-17 14-31 31-31s32 14 32 31v0 32h62c35 0 63-28 63-63v0-62z" horiz-adv-x="1000" />
<glyph glyph-name="calendar-arrow-down" unicode="&#xe9ab;" d="M875 725h-62v31c0 18-14 32-32 32s-31-14-31-32v0-31h-500v31c0 18-14 32-31 32s-31-14-31-32v0-31h-63c-69 0-125-56-125-125v0-500c0-69 56-125 125-125v0h281c18 0 32 14 32 31s-14 32-32 32v0h-281c-34 0-62 28-62 62v0 375h875v-31c0-17 14-31 31-31s31 14 31 31v0 156c0 69-56 125-125 125v0z m-812-187v62c0 35 28 63 62 63v0h63v-32c0-17 14-31 31-31s31 14 31 31v0 32h500v-32c0-17 14-31 31-31s32 14 32 31v0 32h62c35 0 63-28 63-63v0-62z m852-478l-102-103v299c0 18-14 32-32 32s-31-14-31-32v0-299l-103 103c-6 5-13 9-22 9-17 0-31-14-31-31 0-9 3-17 9-23v0l156-156c6-6 14-9 22-9s17 3 22 9l157 156c5 6 9 14 9 23 0 17-14 31-31 31-9 0-17-4-23-9v0z" horiz-adv-x="1000" />
<glyph glyph-name="calendar-arrow-up" unicode="&#xe9ac;" d="M875 725h-62v31c0 18-14 32-32 32s-31-14-31-32v0-31h-500v31c0 18-14 32-31 32s-31-14-31-32v0-31h-63c-69 0-125-56-125-125v0-500c0-69 56-125 125-125v0h281c18 0 32 14 32 31s-14 32-32 32v0h-281c-34 0-62 28-62 62v0 375h875v-31c0-17 14-31 31-31s31 14 31 31v0 156c0 69-56 125-125 125v0z m-812-187v62c0 35 28 63 62 63v0h63v-32c0-17 14-31 31-31s31 14 31 31v0 32h500v-32c0-17 14-31 31-31s32 14 32 31v0 32h62c35 0 63-28 63-63v0-62z m740-260c-5 6-13 10-22 10s-16-4-22-10l-156-156c-6-6-9-13-9-22 0-17 14-31 31-31 9 0 16 3 22 9v0l103 103v-300c0-17 14-31 31-31s32 14 32 31v0 300l102-103c6-6 14-9 23-9 17 0 31 14 31 31 0 9-4 16-9 22v0z" horiz-adv-x="1000" />
<glyph glyph-name="calendar-ban" unicode="&#xe9ad;" d="M875 725h-62v31c0 18-14 32-32 32s-31-14-31-32v0-31h-500v31c0 18-14 32-31 32s-31-14-31-32v0-31h-63c-69 0-125-56-125-125v0-500c0-69 56-125 125-125v0h281c18 0 32 14 32 31s-14 32-32 32v0h-281c-34 0-62 28-62 62v0 375h875v-31c0-17 14-31 31-31s31 14 31 31v0 156c0 69-56 125-125 125v0z m-812-187v62c0 35 28 63 62 63v0h63v-32c0-17 14-31 31-31s31 14 31 31v0 32h500v-32c0-17 14-31 31-31s32 14 32 31v0 32h62c35 0 63-28 63-63v0-62z m718-250c-121 0-218-98-218-219s97-219 218-219c121 0 219 98 219 219v0c0 121-98 219-219 219v0z m-156-219c0 86 70 156 156 156v0c0 0 0 0 0 0 32 0 62-10 87-26l-1 0-216-216c-16 24-26 54-26 86 0 0 0 0 0 0v0z m156-157c0 0 0 0 0 0-32 0-62 10-86 27l0 0 216 216c17-24 27-54 27-86 0 0 0 0 0 0v0c0-87-70-157-157-157v0z" horiz-adv-x="1000" />
<glyph glyph-name="calendar-chart" unicode="&#xe9ae;" d="M875 725h-62v31c0 18-14 32-32 32s-31-14-31-32v0-31h-500v31c0 18-14 32-31 32s-31-14-31-32v0-31h-63c-69 0-125-56-125-125v0-500c0-69 56-125 125-125v0h281c18 0 32 14 32 31s-14 32-32 32v0h-281c-34 0-62 28-62 62v0 375h875v-31c0-17 14-31 31-31s31 14 31 31v0 156c0 69-56 125-125 125v0z m63-187h-875v62c0 35 28 63 62 63v0h63v-32c0-17 14-31 31-31s31 14 31 31v0 32h500v-32c0-17 14-31 31-31s32 14 32 31v0 32h62c35 0 63-28 63-63v0z m31-375h-94v93c0 18-14 32-31 32v0h-125c-17 0-31-14-31-32v0-156h-94c-17 0-31-14-31-31v0-188c0-17 14-31 31-31v0h375c17 0 31 14 31 31v0 250c0 18-14 32-31 32v0z m-281-251h-63v126h63z m125 219v-219h-63v313h63z m125-219h-63v188h63z" horiz-adv-x="1000" />
<glyph glyph-name="calendar-clock" unicode="&#xe9af;" d="M875 725h-62v31c0 18-14 32-32 32s-31-14-31-32v0-31h-500v31c0 18-14 32-31 32s-31-14-31-32v0-31h-63c-69 0-125-56-125-125v0-500c0-69 56-125 125-125v0h281c18 0 32 14 32 31s-14 32-32 32v0h-281c-34 0-62 28-62 62v0 375h875v-31c0-17 14-31 31-31s31 14 31 31v0 156c0 69-56 125-125 125v0z m-812-187v62c0 35 28 63 62 63v0h63v-32c0-17 14-31 31-31s31 14 31 31v0 32h500v-32c0-17 14-31 31-31s32 14 32 31v0 32h62c35 0 63-28 63-63v0-62z m718-250c-121 0-218-98-218-219s97-219 218-219c121 0 219 98 219 219v0c0 121-98 219-219 219v0z m0-376c-86 0-156 70-156 157s70 156 156 156c87 0 157-70 157-156v0c0-87-70-157-157-157v0z m32 170v49c0 18-14 32-32 32s-31-14-31-32v0-62c0 0 0 0 0 0 0-9 4-17 9-22l63-63c5-6 13-9 22-9 17 0 31 14 31 31 0 9-3 17-9 22v0z" horiz-adv-x="1000" />
<glyph glyph-name="calendar-edit" unicode="&#xe9b1;" d="M875 725h-62v31c0 18-14 32-32 32s-31-14-31-32v0-31h-500v31c0 18-14 32-31 32s-31-14-31-32v0-31h-63c-69 0-125-56-125-125v0-500c0-69 56-125 125-125v0h281c18 0 32 14 32 31s-14 32-32 32v0h-281c-34 0-62 28-62 62v0 375h875v-31c0-17 14-31 31-31s31 14 31 31v0 156c0 69-56 125-125 125v0z m63-187h-875v62c0 35 28 63 62 63v0h63v-32c0-17 14-31 31-31s31 14 31 31v0 32h500v-32c0-17 14-31 31-31s32 14 32 31v0 32h62c35 0 63-28 63-63v0z m-36-250c-26-1-51-11-68-29l-182-181c-14-15-26-32-34-52l0-1-53-132c-1-4-2-8-2-12 0-17 14-31 31-31h0c4 0 8 1 12 2l-1 0 133 53c20 8 38 20 52 35l182 181c17 18 28 42 28 69 0 54-44 98-98 98h0z m25-123l-181-181c-8-9-19-16-30-21l-1 0-65-26 26 65c5 12 12 23 21 32l181 181c6 6 15 9 24 9 19 0 35-15 35-35 0-9-4-18-10-24l0 0z" horiz-adv-x="1000" />
<glyph glyph-name="calendar-heart" unicode="&#xe9b2;" d="M875 725h-62v31c0 18-14 32-32 32s-31-14-31-32v0-31h-500v31c0 18-14 32-31 32s-31-14-31-32v0-31h-63c-69 0-125-56-125-125v0-500c0-69 56-125 125-125v0h281c18 0 32 14 32 31s-14 32-32 32v0h-281c-34 0-62 28-62 62v0 375h875v-31c0-17 14-31 31-31s31 14 31 31v0 156c0 69-56 125-125 125v0z m-812-187v62c0 35 28 63 62 63v0h63v-32c0-17 14-31 31-31s31 14 31 31v0 32h500v-32c0-17 14-31 31-31s32 14 32 31v0 32h62c35 0 63-28 63-63v0-62z m726-286l-8-7-7 7c-23 22-53 35-87 35s-65-13-88-35l0 0c-22-22-36-53-36-87s14-64 36-86l0 0 160-158c6-5 14-9 22-9s17 4 22 9l0 0 161 158c22 22 36 52 36 86s-14 65-36 87l0 0c-23 22-54 35-88 35s-65-13-87-35l0 0z m131-129l-139-136-138 136c-11 11-18 26-18 42s7 32 18 42l0 0c11 11 27 18 44 18s32-7 43-18l0 0 29-28c6-6 14-9 22-9s17 3 22 9l0 0 29 28c12 11 27 18 44 18s33-7 44-18l0 0c11-10 18-25 18-42s-7-31-18-42l0 0z" horiz-adv-x="1000" />
<glyph glyph-name="calendar-lock" unicode="&#xe9b3;" d="M875 725h-62v31c0 18-14 32-32 32s-31-14-31-32v0-31h-500v31c0 18-14 32-31 32s-31-14-31-32v0-31h-63c-69 0-125-56-125-125v0-500c0-69 56-125 125-125v0h281c18 0 32 14 32 31s-14 32-32 32v0h-281c-34 0-62 28-62 62v0 375h875v-31c0-17 14-31 31-31s31 14 31 31v0 156c0 69-56 125-125 125v0z m-812-187v62c0 35 28 63 62 63v0h63v-32c0-17 14-31 31-31s31 14 31 31v0 32h500v-32c0-17 14-31 31-31s32 14 32 31v0 32h62c35 0 63-28 63-63v0-62z m875-438v63c0 69-56 125-125 125s-125-56-125-125v0-63c-35 0-63-28-63-62v0-126c0-34 28-62 63-62v0h250c34 0 62 28 62 62v0 126c0 34-28 62-62 62v0z m-188 63c0 34 28 62 63 62s62-28 62-62v0-63h-125z m188-251h-250v126h250z" horiz-adv-x="1000" />
<glyph glyph-name="calendar-pointer" unicode="&#xe9b5;" d="M875 725h-62v31c0 18-14 32-32 32s-31-14-31-32v0-31h-500v31c0 18-14 32-31 32s-31-14-31-32v0-31h-63c-69 0-125-56-125-125v0-500c0-69 56-125 125-125v0h281c18 0 32 14 32 31s-14 32-32 32v0h-281c-34 0-62 28-62 62v0 375h875v-31c0-17 14-31 31-31s31 14 31 31v0 156c0 69-56 125-125 125v0z m-812-187v62c0 35 28 63 62 63v0h63v-32c0-17 14-31 31-31s31 14 31 31v0 32h500v-32c0-17 14-31 31-31s32 14 32 31v0 32h62c35 0 63-28 63-63v0-62z m678-260c-6 6-14 10-22 10-17 0-31-14-31-32 0 0 0 0 0 0v0-265c0-13 7-24 19-29l0 0c3-1 7-2 12-2h0c8 0 16 3 22 9l0 0 47 47 63-147c5-11 16-19 28-19 0 0 0 0 0 0h0c1 0 1 0 1 0 4 0 8 1 12 3l0 0c11 4 19 15 19 28 0 5-1 9-3 13l0 0-62 145 60-1c13 0 24 7 29 18l0 0c2 4 3 8 3 13 0 8-4 16-9 22l0 0z" horiz-adv-x="1000" />
<glyph glyph-name="calendar-search" unicode="&#xe9b6;" d="M875 725h-62v31c0 18-14 32-32 32s-31-14-31-32v0-31h-500v31c0 18-14 32-31 32s-31-14-31-32v0-31h-63c-69 0-125-56-125-125v0-500c0-69 56-125 125-125v0h281c18 0 32 14 32 31s-14 32-32 32v0h-281c-34 0-62 28-62 62v0 375h875v-31c0-17 14-31 31-31s31 14 31 31v0 156c0 69-56 125-125 125v0z m-812-187v62c0 35 28 63 62 63v0h63v-32c0-17 14-31 31-31s31 14 31 31v0 32h500v-32c0-17 14-31 31-31s32 14 32 31v0 32h62c35 0 63-28 63-63v0-62z m786-493c16 24 26 54 26 86 0 0 0 0 0 0v0c0 87-70 157-156 157s-156-70-156-157c0-86 69-156 156-156v0c0 0 0 0 0 0 32 0 62 10 86 26l0 0 79-79c6-6 14-10 22-10 18 0 32 14 32 32 0 8-4 16-10 22v0z m-130-7c-52 0-94 42-94 93s42 94 94 94c52 0 94-42 94-94v0c0-51-42-93-94-93v0z" horiz-adv-x="1000" />
<glyph glyph-name="calendar-user" unicode="&#xe9b7;" d="M875 725h-62v31c0 18-14 32-32 32s-31-14-31-32v0-31h-500v31c0 18-14 32-31 32s-31-14-31-32v0-31h-63c-69 0-125-56-125-125v0-500c0-69 56-125 125-125v0h281c18 0 32 14 32 31s-14 32-32 32v0h-281c-34 0-62 28-62 62v0 375h875v-31c0-17 14-31 31-31s31 14 31 31v0 156c0 69-56 125-125 125v0z m-812-187v62c0 35 28 63 62 63v0h63v-32c0-17 14-31 31-31s31 14 31 31v0 32h500v-32c0-17 14-31 31-31s32 14 32 31v0 32h62c35 0 63-28 63-63v0-62z m881-509l-30 20c15 24 24 53 24 83 0 87-70 157-157 157s-156-70-156-157c0-30 9-59 24-83l0 0-31-20c-34-23-55-61-55-104v-44c0-17 14-31 31-31s31 14 31 31v0 44c0 22 11 41 28 52l0 0 39 26c25-17 56-28 89-28s64 11 90 29l-1-1 40-26c17-11 28-30 28-52v-44c0-17 14-31 31-31s31 14 31 31v0 44c0 43-22 81-55 104l-1 0z m-256 102c0 52 42 94 93 94s94-42 94-94c0-51-42-93-94-93v0c-51 0-93 42-93 93v0z" horiz-adv-x="1000" />
<glyph glyph-name="calendar-wrench" unicode="&#xe9b8;" d="M875 725h-62v31c0 18-14 32-32 32s-31-14-31-32v0-31h-500v31c0 18-14 32-31 32s-31-14-31-32v0-31h-63c-69 0-125-56-125-125v0-500c0-69 56-125 125-125v0h281c18 0 32 14 32 31s-14 32-32 32v0h-281c-34 0-62 28-62 62v0 375h875v-31c0-17 14-31 31-31s31 14 31 31v0 156c0 69-56 125-125 125v0z m-812-187v62c0 35 28 63 62 63v0h63v-32c0-17 14-31 31-31s31 14 31 31v0 32h500v-32c0-17 14-31 31-31s32 14 32 31v0 32h62c35 0 63-28 63-63v0-62z m907-306l-89-90c-3-2-7-4-11-4s-9 2-11 4v0l-67 67c-2 2-4 6-4 11s2 8 4 11v0l90 89c3 3 5 7 5 12 0 7-5 13-12 15l0 0c-10 2-20 3-31 3-19 0-36-3-53-9l1 0c-44-17-79-51-95-95l0-1c-6-15-9-33-9-51 0-17 2-34 8-49l-1 1c1-1 1-3 1-5 0-4-2-8-4-11l-171-171c-12-11-20-28-20-47 0-15 5-29 14-40l0 0c11-14 28-22 47-22 18 0 33 7 45 18l173 174c3 2 7 4 11 4 2 0 3 0 5-1l0 0c14-5 31-7 48-7 18 0 36 3 52 9l-1 0c45 16 79 51 95 94l1 1c5 16 9 33 9 52 0 11-1 21-4 32l1-1c-2 7-8 12-16 12-4 0-8-2-11-5l0 0z" horiz-adv-x="1000" />
<glyph glyph-name="area-chart" unicode="&#xf1fe;" d="M981 660c-12 5-25 2-34-7l-353-353-228 228c-12 13-32 13-44 0l-259-259v487c0 18-14 32-32 32s-31-14-31-32v-750c0-17 14-31 31-31h938c17 0 31 14 31 31v625c0 13-8 24-19 29z m-43-622h-875v143l281 281 228-228c12-12 32-12 44 0l322 322v-518z" horiz-adv-x="1000" />
<glyph glyph-name="bar-chart" unicode="&#xf080;" d="M969 38h-31v281c0 17-14 31-32 31h-187c-17 0-31-14-31-31v-281h-63v656c0 17-14 31-31 31h-188c-17 0-31-14-31-31v-656h-62v468c0 18-14 32-32 32h-187c-17 0-31-14-31-32v-468h-32c-17 0-31-14-31-32s14-31 31-31h938c17 0 31 14 31 31s-14 32-31 32z m-844 0v437h125v-437h-125z m313 0v625h125v-625h-125z m312 0v250h125v-250h-125z" horiz-adv-x="1000" />
<glyph glyph-name="bar-chart-horizontal" unicode="&#xe905;" d="M969 38h-906v125h468c18 0 32 14 32 31v187c0 18-14 32-32 32h-468v125h843c18 0 32 14 32 31v187c0 18-14 32-32 32h-875c-17 0-31-14-31-32v-750c0-17 14-31 31-31h938c17 0 31 14 31 31s-14 32-31 32z m-906 687h812v-125h-812v125z m0-375h437v-125h-437v125z" horiz-adv-x="1000" />
<glyph glyph-name="box-plot-chart" unicode="&#xeaf5;" d="M969 38h-906v718c0 18-14 32-32 32s-31-14-31-32v-750c0-17 14-31 31-31h938c17 0 31 14 31 31s-14 32-31 32z m-750 250h94v-125h-32c-17 0-31-14-31-32s14-31 31-31h125c18 0 32 14 32 31s-14 32-32 32h-31v125h94c17 0 31 14 31 31v250c0 17-14 31-31 31h-94v125h31c18 0 32 14 32 31s-14 32-32 32h-125c-17 0-31-14-31-32s14-31 31-31h32v-125h-94c-17 0-31-14-31-31v-250c0-17 14-31 31-31z m31 250h188v-63h-188v63z m0-125h188v-63h-188v63z m406-125h94v-125h-31c-17 0-31-14-31-32s14-31 31-31h125c17 0 31 14 31 31s-14 32-31 32h-31v125h93c18 0 32 14 32 31v250c0 17-14 31-32 31h-93v125h31c17 0 31 14 31 31s-14 32-31 32h-125c-17 0-31-14-31-32s14-31 31-31h31v-125h-94c-17 0-31-14-31-31v-250c0-17 14-31 31-31z m32 250h187v-63h-187v63z m0-125h187v-63h-187v63z" horiz-adv-x="1000" />
<glyph glyph-name="bubble-chart" unicode="&#xe906;" d="M969 38h-906v718c0 18-14 32-32 32s-31-14-31-32v-750c0-17 14-31 31-31h938c17 0 31 14 31 31s-14 32-31 32z m-594 187c0-69 56-125 125-125s125 56 125 125-56 125-125 125-125-56-125-125z m188 0c0-34-28-62-63-62s-62 28-62 62 28 63 62 63 63-29 63-63z m-313 63c69 0 125 56 125 125s-56 125-125 125-125-57-125-125 56-125 125-125z m0 187c35 0 63-28 63-62s-28-63-63-63-62 28-62 63 28 62 62 62z m563-250c68 0 125 56 125 125s-57 125-125 125-125-56-125-125 56-125 125-125z m0 188c34 0 62-29 62-63s-28-62-62-62-63 28-63 62 28 63 63 63z m-282 0c86 0 157 70 157 156s-71 156-157 156-156-70-156-156 70-156 156-156z m0 250c52 0 94-43 94-94s-42-94-94-94-93 42-93 94 42 94 93 94z" horiz-adv-x="1000" />
<glyph glyph-name="combo-chart" unicode="&#xe907;" d="M969 538h-188c-17 0-31-14-31-32v-468h-62v343c0 18-14 32-32 32h-187c-17 0-31-14-31-32v-343h-63v218c0 18-14 32-31 32h-188c-17 0-31-14-31-32v-218h-62v718c0 18-14 32-32 32s-31-14-31-32v-750c0-17 14-31 31-31h938c17 0 31 14 31 31v500c0 18-14 32-31 32z m-656-500h-125v187h125v-187z m312 0h-125v312h125v-312z m313 0h-125v437h125v-437z m-782 368c4 0 8 1 12 2l812 326c16 6 24 24 18 40s-25 24-41 18l-812-325c-16-7-24-25-18-41 5-12 17-20 29-20z" horiz-adv-x="1000" />
<glyph glyph-name="dial-gauge-chart" unicode="&#xe908;" d="M771 578c12 12 12 32 0 44s-32 12-44 0l-164-163c-19 11-40 18-64 18-69 0-125-56-125-125s56-125 125-125 125 56 125 125c0 23-7 44-17 62l164 164z m-272-288c-34 0-62 28-62 62s28 63 62 63 63-28 63-63-29-62-63-62z m-30 373h62c18 0 32 14 32 31s-14 31-32 31h-62c-17 0-31-14-31-31s14-31 31-31z m-313-250c-17 0-31-14-31-32v-62c0-17 14-31 31-31s32 14 32 31v62c0 18-14 32-32 32z m688 0c-17 0-31-14-31-32v-62c0-17 14-31 31-31s31 14 31 31v62c0 18-14 32-31 32z m-587 224l-44-44c-12-12-12-32 0-44 6-6 14-9 22-9s16 3 22 9l44 44c12 12 12 32 0 44s-32 13-44 0z m486-486l-44-44c-12-12-12-32 0-44 6-6 14-9 22-9s16 3 22 9l44 44c13 12 13 32 0 44s-32 12-44 0z m-486 0c-12 12-32 12-44 0s-12-32 0-44l44-44c6-6 14-9 22-9s16 3 22 9c12 12 12 32 0 44l-44 44z m243 699c-276 0-500-225-500-501 0-177 95-342 248-432 4-3 10-5 15-5h474c5 0 11 2 15 5 153 90 248 255 248 432 0 276-224 501-500 501z m228-875h-456c-129 80-209 222-209 374 0 242 196 439 437 439s438-197 438-439c0-152-81-294-210-374z" horiz-adv-x="1000" />
<glyph glyph-name="donut-chart" unicode="&#xe909;" d="M781 288h-187c-17 0-31-14-31-32 0-86-71-156-157-156s-156 70-156 156 70 157 156 157c18 0 32 14 32 31v187c0 18-14 32-32 32-224 0-406-183-406-407s182-406 406-406 407 182 407 406c0 18-14 32-32 32z m-718-32c0 179 137 327 312 343v-126c-106-15-187-107-187-217 0-49 16-94 44-130l-90-90c-49 60-79 137-79 220z m343-344c-83 0-160 30-220 80l90 90c36-28 81-44 130-44 49 0 94 16 131 44l88-89c-59-50-135-81-219-81z m264 125l-89 89c21 28 37 62 42 99h126c-7-71-36-136-79-188z m-76 809c-17 0-31-14-31-31v-187c0-18 14-32 31-32 86 0 156-70 156-156 0-17 14-31 31-31h188c17 0 31 14 31 31 0 224-182 406-406 406z m216-375c-13 96-89 172-185 186v125c165-14 296-146 311-311h-126z" horiz-adv-x="1000" />
<glyph glyph-name="funnel-chart" unicode="&#xe90a;" d="M969 38h-906v718c0 18-14 32-32 32s-31-14-31-32v-750c0-17 14-31 31-31h938c17 0 31 14 31 31s-14 32-31 32z m-613 418c54-73 89-158 101-246l12-83c2-15 15-27 31-27h188c15 0 28 12 30 27l12 83c12 88 47 173 102 246l162 219c7 10 8 22 3 33s-16 17-28 17h-750c-12 0-23-7-28-17s-4-23 3-33l162-219z m347-106h-218c-17 44-40 86-67 125h352c-27-39-50-81-67-125z m-43-187h-133l-8 56c-3 23-8 46-14 69h177c-6-23-11-46-14-69l-8-56z m247 500l-93-125h-441l-92 125h626z" horiz-adv-x="1000" />
<glyph glyph-name="gantt-chart" unicode="&#xe90b;" d="M156 600h375c18 0 32 14 32 31v125c0 18-14 32-32 32h-375c-17 0-31-14-31-32v-125c0-17 14-31 31-31z m32 125h312v-62h-312v62z m187-219v-125c0-17 14-31 31-31h250c18 0 32 14 32 31v125c0 18-14 32-32 32h-250c-17 0-31-14-31-32z m63-31h187v-62h-187v62z m62-219v-125c0-17 14-31 31-31h375c18 0 32 14 32 31v125c0 18-14 32-32 32h-375c-17 0-31-14-31-32z m63-31h312v-62h-312v62z m406-187h-906v718c0 18-14 32-32 32s-31-14-31-32v-750c0-17 14-31 31-31h938c17 0 31 14 31 31s-14 32-31 32z" horiz-adv-x="1000" />
<glyph glyph-name="line-area-chart" unicode="&#xe90c;" d="M981 723c-12 5-25 2-34-7l-170-169-166 110c-12 9-29 7-39-4l-170-169-166 111c-13 9-31 6-41-6l-132-155v322c0 18-14 32-32 32s-31-14-31-32v-750c0-17 14-31 31-31h938c17 0 31 14 31 31v688c0 12-8 24-19 29z m-757-196l165-109c12-9 29-7 39 4l170 169 166-111c12-8 29-6 39 4l135 134v-161l-161-160-166 110c-12 9-29 7-39-4l-170-169-166 111c-13 9-31 6-41-6l-132-155v154l161 189z m-161-489v50l161 189 165-109c12-9 29-7 39 4l170 169 166-111c12-8 29-6 39 4l135 134v-330h-875z" horiz-adv-x="1000" />
<glyph glyph-name="line-chart" unicode="&#xf201;" d="M969 38h-906v656c0 17-14 31-32 31s-31-14-31-31v-688c0-17 14-31 31-31h938c17 0 31 14 31 31s-14 32-31 32z m0 625h-250c-17 0-31-14-31-32s14-31 31-31h174l-299-300-166 166c-12 12-32 12-44 0l-250-250c-12-12-12-32 0-44 6-6 14-9 22-9s16 3 22 9l228 228 166-166c12-12 32-12 44 0l322 322v-175c0-17 14-31 31-31s31 14 31 31v250c0 18-14 32-31 32z" horiz-adv-x="1000" />
<glyph glyph-name="pie-chart" unicode="&#xf200;" d="M781 291h-343v344c0 17-14 31-32 31-224 0-406-182-406-406s182-406 406-406 407 182 407 406c0 17-14 31-32 31z m-718-31c0 179 137 326 312 342v-329l-233-233c-49 60-79 136-79 220z m123-264l220 220 219-219c-59-50-135-81-219-81-83 0-160 30-220 80z m484 45l-188 188h267c-7-72-36-136-79-188z m-76 809c-17 0-31-14-31-31v-375c0-17 14-31 31-31h375c17 0 31 14 31 31 0 224-182 406-406 406z m31-375v311c165-15 296-146 311-311h-311z" horiz-adv-x="1000" />
<glyph glyph-name="pie-chart-0" unicode="&#xeaa7;" d="M500 850c-276 0-500-224-500-500s224-500 500-500 500 224 500 500-224 500-500 500z m0-938c-241 0-437 197-437 438s196 438 437 438 438-197 438-438-197-438-438-438z" horiz-adv-x="1000" />
<glyph glyph-name="pie-chart-10" unicode="&#xeaa9;" d="M500 850c-276 0-500-224-500-500s224-500 500-500 500 224 500 500-224 500-500 500z m0-938c-241 0-437 197-437 438s196 438 437 438v-438l257 353c109-79 181-208 181-353 0-241-197-438-438-438z" horiz-adv-x="1000" />
<glyph glyph-name="pie-chart-100" unicode="&#xeabb;" d="M1000 350c0-276-224-500-500-500s-500 224-500 500c0 276 224 500 500 500s500-224 500-500z" horiz-adv-x="1000" />
<glyph glyph-name="pie-chart-15" unicode="&#xeaaa;" d="M500 850c-276 0-500-224-500-500s224-500 500-500 500 224 500 500-224 500-500 500z m0-938c-241 0-437 197-437 438s196 438 437 438v-438l353 257c53-72 85-161 85-257 0-241-197-438-438-438z" horiz-adv-x="1000" />
<glyph glyph-name="pie-chart-20" unicode="&#xeaab;" d="M501 850c-276 0-500-224-500-500s224-500 500-500 500 224 500 500-224 500-500 500z m0-938c-241 0-437 197-437 438 0 241 195 437 436 437 0-222 0-437 0-437l417 135c14-42 22-88 22-135 0-241-197-438-438-438z" horiz-adv-x="1000" />
<glyph glyph-name="pie-chart-25" unicode="&#xeaac;" d="M500 850c-276 0-500-224-500-500s224-500 500-500 500 224 500 500-224 500-500 500z m0-938c-241 0-437 197-437 438s196 438 437 438v-438h438c0-241-197-438-438-438z" horiz-adv-x="1000" />
<glyph glyph-name="pie-chart-30" unicode="&#xeaad;" d="M500 850c-276 0-500-224-500-500s224-500 500-500 500 224 500 500-224 500-500 500z m0-938c-241 0-437 197-437 438s196 438 437 438v-438l416-135c-57-175-222-303-416-303z" horiz-adv-x="1000" />
<glyph glyph-name="pie-chart-35" unicode="&#xeaae;" d="M500 850c-276 0-500-224-500-500s224-500 500-500 500 224 500 500-224 500-500 500z m0-938c-241 0-437 197-437 438s196 438 437 438v-438l353-257c-79-109-208-181-353-181z" horiz-adv-x="1000" />
<glyph glyph-name="pie-chart-40" unicode="&#xeaaf;" d="M494 850c-275 0-500-224-500-500s225-500 500-500 500 224 500 500-224 500-500 500z m-437-500c0 241 196 438 437 438 2 0 4-1 6-1v-437l255-351c-73-54-163-87-261-87-241 0-437 197-437 438z" horiz-adv-x="1000" />
<glyph glyph-name="pie-chart-45" unicode="&#xeab0;" d="M501 850c-276 0-500-224-500-500s224-500 500-500 500 224 500 500-224 500-500 500z m-437-500c0 241 196 437 436 437l0-437 135-416c-42-14-87-22-134-22-241 0-437 197-437 438z" horiz-adv-x="1000" />
<glyph glyph-name="pie-chart-5" unicode="&#xeaa8;" d="M500 850c-276 0-500-224-500-500s224-500 500-500 500 224 500 500-224 500-500 500z m0-938c-241 0-437 197-437 438s196 438 437 438v-438l135 416c175-57 303-222 303-416 0-241-197-438-438-438z" horiz-adv-x="1000" />
<glyph glyph-name="pie-chart-50" unicode="&#xeab1;" d="M500 854c-277 0-502-225-502-502s225-502 502-502 502 225 502 502-225 502-502 502z m0-937c-240 0-435 195-435 435s195 436 435 436v-871z" horiz-adv-x="1000" />
<glyph glyph-name="pie-chart-55" unicode="&#xeab2;" d="M501 850c-276 0-500-224-500-500s224-500 500-500 500 224 500 500-224 500-500 500z m-437-500c0 241 196 438 437 438 0 0 1-1 1-1l0-437-135-416c-176 56-303 222-303 416z" horiz-adv-x="1000" />
<glyph glyph-name="pie-chart-60" unicode="&#xeab3;" d="M494 850c-275 0-500-224-500-500s225-500 500-500 500 224 500 500-224 500-500 500z m-437-500c0 239 193 434 432 437v-437l-255-351c-107 80-177 207-177 351z" horiz-adv-x="1000" />
<glyph glyph-name="pie-chart-65" unicode="&#xeab4;" d="M500 850c-276 0-500-224-500-500s224-500 500-500 500 224 500 500-224 500-500 500z m0-62v-438l-353-257c-53 72-84 161-84 257 0 241 196 438 437 438z" horiz-adv-x="1000" />
<glyph glyph-name="pie-chart-70" unicode="&#xeab5;" d="M500 850c-276 0-500-224-500-500s224-500 500-500 500 224 500 500-224 500-500 500z m0-62v-438l-416-135c-14 43-21 88-21 135 0 241 196 438 437 438z" horiz-adv-x="1000" />
<glyph glyph-name="pie-chart-75" unicode="&#xeab6;" d="M500 852c-276 0-500-224-500-500s224-500 500-500 500 225 500 500-224 500-500 500z m0-500h-437c0 241 196 438 437 438v-438z" horiz-adv-x="1000" />
<glyph glyph-name="pie-chart-80" unicode="&#xeab7;" d="M501 850c-276 0-500-224-500-500s224-500 500-500 500 224 500 500-224 500-500 500z m0-62c1 0 1-1 1-1 0-247 0-437 0-437l-417 135c58 176 222 303 416 303z" horiz-adv-x="1000" />
<glyph glyph-name="pie-chart-85" unicode="&#xeab8;" d="M500 850c-276 0-500-224-500-500s224-500 500-500 500 224 500 500-224 500-500 500z m0-62v-438l-353 257c79 109 208 181 353 181z" horiz-adv-x="1000" />
<glyph glyph-name="pie-chart-90" unicode="&#xeab9;" d="M501 850c-276 0-500-224-500-500s224-500 500-500 500 224 500 500-224 500-500 500z m-257-147c72 53 160 84 256 84v-437l-256 353z" horiz-adv-x="1000" />
<glyph glyph-name="pie-chart-95" unicode="&#xeaba;" d="M501 850c-276 0-500-224-500-500s224-500 500-500 500 224 500 500-224 500-500 500z m-136-84c43 14 88 21 135 21v-437l-135 416z" horiz-adv-x="1000" />
<glyph glyph-name="polar-chart" unicode="&#xe911;" d="M969 350h-158c-16 244-219 437-467 438-7-1-16-4-22-10s-9-13-9-22v-95c-175-15-313-163-313-342 0-190 154-344 343-344 81 0 158 30 220 83l200-199c7-6 15-9 22-9s16 3 22 9c125 123 193 286 193 460 0 17-14 31-31 31z m-594 374c199-16 359-175 374-374h-374v374z m-32-686c-155 0-280 126-280 281 0 145 109 263 250 278v-278c0-9 3-17 9-22v0l197-195c-50-41-111-64-176-64z m442-112l-365 362h517c-7-135-60-262-152-362z" horiz-adv-x="1000" />
<glyph glyph-name="pyramid-chart" unicode="&#xeaf6;" d="M995 23l-468 750c-12 18-42 18-53 0l-469-750c-6-10-7-22-1-32 6-10 16-16 27-16h938c11 0 22 6 27 16 6 10 5 22-1 32z m-495 674l100-159h-200l100 159z m-139-222h278l117-187h-512l117 187z m-273-437l117 187h590l117-187h-824z" horiz-adv-x="1000" />
<glyph glyph-name="radar-chart" unicode="&#xe912;" d="M938 219v262c36 13 62 47 62 88 0 51-42 94-94 94-25 0-48-11-65-27l-217 109c0 4 1 7 1 11 0 52-42 94-94 94s-93-42-93-94c0-3 0-7 1-10l-221-107c-17 14-38 24-62 24-51 0-93-43-93-94s42-94 93-94c26 0 49 10 66 27l217-109c-1-4-1-8-1-12 0-40 26-75 62-88v-261c-36-13-62-48-62-88 0-52 42-94 93-94s94 42 94 94c0 4-1 7-1 11l217 109c17-16 40-26 65-26 52 0 94 42 94 93 0 41-26 75-62 88z m-782 319c-17 0-31 14-31 31s14 31 31 31 32-14 32-31-15-31-32-31z m750 62c17 0 32-14 32-31s-15-31-32-31-31 14-31 31 14 31 31 31z m-375 188c17 0 32-14 32-32s-15-31-32-31-31 14-31 31 14 32 31 32z m-283-204l218 106c16-17 40-27 65-27 26 0 48 10 65 26l218-109c-1-4-1-7-1-11 0-41 26-75 62-88v-262c-36-13-62-47-62-88 0-4 0-7 1-11l-218-109c-9 9-21 16-33 21v261c36 13 62 48 62 88 0 52-42 94-94 94-25 0-48-10-64-26l-218 109c0 4 1 7 1 11 0 5-1 10-2 15z m283-234c-17 0-31 14-31 31s14 32 31 32 32-14 32-32-15-31-32-31z m0-438c-17 0-31 14-31 32s14 31 31 31 32-14 32-31-15-32-32-32z m375 188c-17 0-31 14-31 31s14 32 31 32 32-14 32-32-15-31-32-31z" horiz-adv-x="1000" />
<glyph glyph-name="range-chart-area" unicode="&#xe913;" d="M283 281l295-177c5-3 10-4 16-4 6 0 12 2 17 5l170 114 170-114c10-6 22-7 33-1 10 5 16 16 16 27v250c0 11-5 20-14 26l-187 125c-13 9-29 7-40-4l-98-98-104 156c-5 8-13 13-23 14-9 1-18-3-25-9l-98-98-104 156c-5 8-14 13-24 14-10 0-20-4-26-12l-194-243v348c0 18-14 32-32 32s-31-14-31-32v-750c0-17 14-31 31-31h938c17 0 31 14 31 31s-14 32-31 32h-906v78l220 165z m-4 297l101-152c5-7 14-12 23-13 10-1 19 2 25 9l98 98 104-156c6-8 14-13 23-14 10-1 19 3 25 9l107 107 153-101v-175l-139 92c-11 7-25 7-35 0l-171-114-296 178c-5 3-10 4-16 4-6 0-13-2-18-6l-200-150v114l216 270z" horiz-adv-x="1000" />
<glyph glyph-name="range-chart-bar" unicode="&#xe914;" d="M969 38h-906v718c0 18-14 32-32 32s-31-14-31-32v-750c0-17 14-31 31-31h938c17 0 31 14 31 31s-14 32-31 32z m0 687h-188c-17 0-31-14-31-31v-313c0-17 14-31 31-31h188c17 0 31 14 31 31v313c0 17-14 31-31 31z m-31-312h-125v250h125v-250z m-782-188h188c17 0 31 14 31 31v313c0 17-14 31-31 31h-188c-17 0-31-14-31-31v-313c0-17 14-31 31-31z m32 313h125v-250h-125v250z m281-438h187c18 0 32 14 32 31v313c0 17-14 31-32 31h-187c-17 0-31-14-31-31v-313c0-17 14-31 31-31z m31 313h125v-250h-125v250z" horiz-adv-x="1000" />
<glyph glyph-name="scatter-chart" unicode="&#xe915;" d="M969 38h-906v718c0 18-14 32-32 32s-31-14-31-32v-750c0-17 14-31 31-31h938c17 0 31 14 31 31s-14 32-31 32z m-63 312c52 0 94 42 94 94s-42 94-94 94-93-43-93-94 42-94 93-94z m0 125c18 0 32-14 32-31s-14-31-32-31-31 14-31 31 14 31 31 31z m-250 125c52 0 94 42 94 94s-42 94-94 94-93-43-93-94 42-94 93-94z m0 125c18 0 32-14 32-31s-14-31-32-31-31 14-31 31 14 31 31 31z m-250-312c52 0 94 42 94 93s-42 94-94 94-93-42-93-94 42-93 93-93z m0 125c18 0 32-14 32-32s-14-31-32-31-31 14-31 31 14 32 31 32z m-187-375c51 0 94 42 94 93s-43 94-94 94-94-42-94-94 42-93 94-93z m0 125c17 0 31-14 31-32s-14-31-31-31-31 14-31 31 14 32 31 32z" horiz-adv-x="1000" />
<glyph glyph-name="stock-chart" unicode="&#xe916;" d="M969-25h-938c-17 0-31 14-31 31v750c0 18 14 32 31 32s32-14 32-32v-718h906c17 0 31-14 31-32s-14-31-31-31z m-625 563h-31v93c0 18-14 32-32 32s-31-14-31-32v-93h-31c-17 0-31-14-31-32v-250c0-17 14-31 31-31h31v-94c0-17 14-31 31-31s32 14 32 31v94h31c17 0 31 14 31 31v250c0 18-14 32-31 32z m-31-250h-63v187h63v-187z m656 250h-31v93c0 18-14 32-32 32s-31-14-31-32v-93h-31c-17 0-31-14-31-32v-250c0-17 14-31 31-31h31v-94c0-17 14-31 31-31s32 14 32 31v94h31c17 0 31 14 31 31v250c0 18-14 32-31 32z m-31-250h-63v187h63v-187z m-282 375h-31v93c0 18-14 32-31 32s-31-14-31-32v-93h-32c-17 0-31-14-31-32v-250c0-17 14-31 31-31h32v-94c0-17 14-31 31-31s31 14 31 31v94h31c18 0 32 14 32 31v250c0 18-14 32-32 32z m-31-250h-62v187h62v-187z" horiz-adv-x="1000" />
<glyph glyph-name="x-axis" unicode="&#xe917;" d="M906 38c-17 0-31-14-31-32v-94h-750v94c0 18-14 32-31 32s-31-14-31-32v-125c0-17 14-31 31-31h812c18 0 32 14 32 31v125c0 18-14 32-32 32z m-582 69c6-5 13-7 20-7 9 0 18 4 24 11l132 159 132-159c6-7 15-11 24-11 7 0 14 2 20 7 14 11 15 31 4 44l-139 168 139 167c11 14 10 33-4 44-13 11-33 10-44-4l-132-158-132 158c-11 14-31 15-44 4-13-11-15-30-4-44l139-167-139-168c-11-13-9-33 4-44z" horiz-adv-x="1000" />
<glyph glyph-name="y-axis" unicode="&#xe918;" d="M156 663c18 0 32 14 32 31s-14 31-32 31h-125c-17 0-31-14-31-31v-750c0-18 14-32 31-32h125c18 0 32 14 32 32s-14 31-32 31h-93v688h93z m520-133c-13 11-33 10-44-4l-132-158-132 158c-11 14-31 15-44 4-13-11-15-30-4-44l149-179v-176c0-17 14-31 31-31s31 14 31 31v176l149 179c11 14 10 33-4 44z" horiz-adv-x="1000" />
<glyph glyph-name="y1-axis" unicode="&#xe919;" d="M844-25h-31v219c0 17-14 31-32 31h-62c-17 0-31-14-31-31s14-31 31-31h31v-188h-31c-17 0-31-14-31-31s14-32 31-32h125c17 0 31 14 31 32s-14 31-31 31z m-688 688c18 0 32 14 32 31s-14 31-32 31h-125c-17 0-31-14-31-31v-750c0-18 14-32 31-32h125c18 0 32 14 32 32s-14 31-32 31h-93v688h93z m476-137l-132-158-132 158c-11 14-31 15-44 4-13-11-15-30-4-44l149-179v-176c0-17 14-31 31-31s31 14 31 31v176l149 179c11 14 10 33-4 44s-33 10-44-4z" horiz-adv-x="1000" />
<glyph glyph-name="y2-axis" unicode="&#xe91a;" d="M813 38c34 0 62 28 62 62v63c0 34-28 62-62 62h-94c-17 0-31-14-31-31s14-31 31-31h94v-63h-63c-34 0-62-28-62-62v-94c0-18 14-32 31-32h125c17 0 31 14 31 32s-14 31-31 31h-94v63h63z m-657 625c18 0 32 14 32 31s-14 31-32 31h-125c-17 0-31-14-31-31v-750c0-18 14-32 31-32h125c18 0 32 14 32 32s-14 31-32 31h-93v688h93z m476-137l-132-158-132 158c-11 14-31 15-44 4-13-11-15-30-4-44l149-179v-176c0-17 14-31 31-31s31 14 31 31v176l149 179c11 14 10 33-4 44s-33 10-44-4z" horiz-adv-x="1000" />
<glyph glyph-name="bitcoin" unicode="&#xf15a;" d="M641 395c29 29 47 68 47 111 0 76-54 139-125 153v97c0 18-14 32-32 32s-31-14-31-32v-93h-62v93c0 18-14 32-32 32s-31-14-31-32v-93h-94c-17 0-31-14-31-32v-562c0-17 14-31 31-31h94v-94c0-18 14-32 31-32s32 14 32 32v94h62v-94c0-18 14-32 31-32s32 14 32 32v94c103 0 187 84 187 187 0 75-45 140-109 170z m-328 205h218c52 0 94-42 94-94s-42-93-94-93h-218v187z m250-500h-250v250h250c68 0 125-56 125-125s-57-125-125-125z" horiz-adv-x="1000" />
<glyph glyph-name="yen" unicode="&#xf157;" d="M806 674c10 14 8 33-5 44-14 11-33 9-44-5l-226-282-225 282c-11 14-31 16-44 5-14-11-16-30-5-44l243-304v-20h-156c-17 0-31-14-31-31s14-31 31-31h156v-63h-156c-17 0-31-14-31-31s14-31 31-31h156v-157c0-17 14-31 31-31s32 14 32 31v157h156c17 0 31 14 31 31s-14 31-31 31h-156v63h156c17 0 31 14 31 31s-14 31-31 31h-156v20l243 304z" horiz-adv-x="1000" />
<glyph glyph-name="usd" unicode="&#xf155;" d="M541 380c-100 34-166 60-166 111 0 59 72 109 156 109 69 0 131-32 150-79 7-16 25-23 41-17 16 7 23 26 17 41-27 63-95 106-176 116v95c0 18-14 32-32 32s-31-14-31-32v-96c-106-12-187-83-187-169 0-100 110-138 208-171 101-34 167-60 167-111 0-59-72-109-157-109-68 0-130 32-150 79-6 16-25 23-41 17s-23-25-16-41c26-63 95-106 176-115v-96c0-18 14-32 31-32s32 14 32 32v96c105 12 187 83 187 169 0 100-111 138-209 171z" horiz-adv-x="1000" />
<glyph glyph-name="euro" unicode="&#xf153;" d="M784 129c-57-57-135-92-221-92-128 0-237 76-285 186l-1 2h379c17 0 31 14 31 31s-14 32-31 32v0h-399c-4 18-7 40-7 62l0 0h469c17 0 31 14 31 31s-14 32-31 32v0h-462c29 143 155 250 305 250 87 0 165-35 221-92l0 0c6-5 14-9 22-9 17 0 31 14 31 32 0 8-3 16-8 21l0 0c-68 68-162 111-265 111-185 0-339-135-369-311l0-2h-38c-17 0-31-14-31-32s14-31 31-31v0h31c1-22 3-44 7-65l0 3h-38c-17 0-31-14-31-32s14-31 31-31v0h54c53-147 191-250 353-250 103 0 197 42 265 110l0 0c5 6 8 13 8 22 0 17-14 31-31 31-8 0-16-4-22-9l0 0z" horiz-adv-x="1000" />
<glyph glyph-name="gbp" unicode="&#xf154;" d="M781 38h-383c24 33 40 77 40 125v125h156c17 0 31 14 31 31s-14 31-31 31h-156v188c0 68 56 125 125 125h50c37 0 71-17 95-45 11-13 31-14 44-3 13 11 15 31 4 44-36 42-88 66-143 66h-50c-104 0-188-84-188-187v-188h-94c-17 0-31-14-31-31s14-31 31-31h94v-125c0-69-42-125-94-125-17 0-31-14-31-32s14-31 31-31h500c18 0 32 14 32 31s-14 32-32 32z" horiz-adv-x="1000" />
<glyph glyph-name="sheqel" unicode="&#xf20b;" d="M563 444v-188c0-17 14-31 31-31s31 14 31 31v188c0 155-126 281-281 281h-125c-17 0-31-14-31-31v-688c0-17 14-31 31-31s31 14 31 31v657h94c120 0 219-99 219-219z m218 281c-17 0-31-14-31-31v-438c0-120-98-218-219-218h-93v406c0 17-14 31-32 31s-31-14-31-31v-438c0-17 14-31 31-31h125c155 0 282 126 282 281v438c0 17-14 31-32 31z" horiz-adv-x="1000" />
<glyph glyph-name="rupee" unicode="&#xf156;" d="M719 600h-76c-9 23-21 44-38 63h114c17 0 31 14 31 31s-14 31-31 31h-438c-17 0-31-14-31-31s14-31 31-31h186c46 0 86-26 107-63h-293c-17 0-31-14-31-31s14-31 31-31h311c0-69-56-125-125-125h-186c-12 0-23-7-28-18-5-11-4-24 4-34l313-375c6-7 15-11 24-11 7 0 14 2 20 7 13 11 15 31 4 44l-270 324h119c103 0 187 84 187 188h65c17 0 31 14 31 31s-14 31-31 31z" horiz-adv-x="1000" />
<glyph glyph-name="won" unicode="&#xf159;" d="M906 350h-124l17 63h107c18 0 32 14 32 31s-14 31-32 31h-89l57 211c5 16-5 33-22 38-16 4-34-5-38-22l-62-227h-170l-51 226c-4 14-16 24-31 24s-27-10-30-24l-52-226h-170l-62 227c-4 17-21 26-38 22-17-5-26-22-22-38l58-211h-90c-17 0-31-14-31-31s14-31 31-31h107l17-63h-124c-17 0-31-14-31-31s14-31 31-31h141l79-290c3-14 16-22 30-23 15 0 27 10 30 24l66 289h120l66-289c3-14 15-24 30-24h0c14 0 27 9 30 23l79 290h141c18 0 32 14 32 31s-14 31-32 31z m-565-215l-42 153h77l-35-153z m49 215h-108l-17 63h139l-14-63z m110 203l18-78h-36l18 78z m-46-203l14 63h64l14-63h-92z m205-215l-35 153h77l-42-153z m59 215h-108l-14 63h139l-17-63z" horiz-adv-x="1000" />
<glyph glyph-name="money" unicode="&#xf0d6;" d="M969 663h-938c-17 0-31-14-31-32v-562c0-17 14-31 31-31h938c17 0 31 14 31 31v562c0 18-14 32-31 32z m-216-563h-506c-14 95-89 171-184 184v132c95 14 170 89 184 184h506c14-95 89-170 185-184v-132c-96-13-171-89-185-184z m185 378c-62 13-110 61-122 122h122v-122z m-754 122c-12-61-60-109-121-122v122h121z m-121-378c61-13 109-61 121-122h-121v122z m753-122c12 61 60 109 122 122v-122h-122z m-316 438c-103 0-187-85-187-188s84-187 187-187 188 84 188 187-85 188-188 188z m0-313c-69 0-125 56-125 125s56 125 125 125 125-56 125-125-56-125-125-125z" horiz-adv-x="1000" />
<glyph glyph-name="ruble" unicode="&#xf158;" d="M594 288c120 0 219 98 219 218s-99 219-219 219h-250c-17 0-31-14-31-31v-344h-94c-17 0-31-14-31-31s14-31 31-31h94v-63h-94c-17 0-31-14-31-31s14-31 31-31h94v-157c0-17 14-31 31-31s31 14 31 31v157h219c17 0 31 14 31 31s-14 31-31 31h-219v63h219z m-219 375h219c86 0 156-71 156-157s-70-156-156-156h-219v313z" horiz-adv-x="1000" />
<glyph glyph-name="turkish-lira" unicode="&#xf195;" d="M782 350c-17 0-31-14-31-31 0-147-138-267-313-280v340l231 99c15 7 23 25 16 41s-25 23-41 17l-206-89v57l231 99c15 7 23 25 16 41s-25 23-41 17l-206-89v122c0 17-14 31-32 31s-31-14-31-31v-149l-169-73c-15-6-23-25-16-41 5-11 17-18 29-18l12 2 144 62v-57l-169-73c-15-6-23-25-16-41 5-11 17-18 29-18l12 2 144 62v-346c0-17 14-31 32-31 224 0 406 154 406 344 0 17-14 31-31 31z" horiz-adv-x="1000" />
<glyph glyph-name="angle-double-down" unicode="&#xf103;" d="M654 258l-154-154-154 154c-9 8-20 13-32 13-26 0-47-21-47-47 0-13 5-24 12-32l0 0 188-188c8-8 20-13 33-13s25 5 33 13l188 188c8 8 12 19 12 32 0 26-21 47-47 47-12 0-23-5-32-13l0 0z m-187 184c8-9 20-14 33-14s25 5 33 14l188 187c7 9 12 20 12 32 0 26-21 47-47 47-12 0-23-5-32-12l0 0-154-155-154 155c-9 7-20 12-32 12-26 0-47-21-47-47 0-12 5-23 12-32l0 0z" horiz-adv-x="1000" />
<glyph glyph-name="angle-double-left" unicode="&#xf100;" d="M408 571c-8 8-20 13-33 13s-25-5-33-13l-188-188c-8-8-13-20-13-33s5-25 13-33l188-188c8-7 19-12 32-12 26 0 47 21 47 47 0 12-5 23-13 32l0 0-154 154 154 154c9 9 14 21 14 34s-5 24-14 33l0 0z m283-221l155 154c7 9 12 20 12 32 0 26-21 47-47 47-12 0-23-5-32-12l0 0-187-188c-9-8-14-20-14-33s5-25 14-33l187-188c9-7 20-12 32-12 26 0 47 21 47 47 0 12-5 23-12 32l0 0z" horiz-adv-x="1000" />
<glyph glyph-name="angle-double-right" unicode="&#xf101;" d="M846 383l-188 188c-8 7-19 12-32 12-26 0-47-21-47-47 0-12 5-23 13-32l0 0 154-154-154-154c-9-9-15-21-15-35 0-26 21-47 47-47 13 0 26 6 34 15l0 0 188 188c8 8 13 20 13 33s-5 25-13 33l0 0z m-625 188c-9 9-21 15-35 15-26 0-47-21-47-47 0-14 6-26 15-35l0 0 155-154-155-154c-9-9-15-21-15-35 0-25 21-46 47-46 14 0 26 5 35 14l0 0 187 188c9 8 14 20 14 33s-5 25-14 33l0 0z" horiz-adv-x="1000" />
<glyph glyph-name="angle-double-up" unicode="&#xf102;" d="M346 442l154 154 154-154c9-8 20-13 32-13 26 0 47 21 47 47 0 13-5 24-12 32l0 0-188 188c-8 8-20 13-33 13s-25-5-33-13l-188-188c-7-8-12-19-12-32 0-26 21-47 47-47 12 0 23 5 32 13l0 0z m187-184c-8 9-20 14-33 14s-25-5-33-14l-188-187c-7-9-12-20-12-32 0-26 21-47 47-47 12 0 23 5 32 12l0 0 154 155 154-155c9-7 20-12 32-12 26 0 47 21 47 47 0 12-5 23-12 32l0 0z" horiz-adv-x="1000" />
<glyph glyph-name="angle-down" unicode="&#xf107;" d="M721 446c-9 8-21 13-33 13s-25-5-34-13l-154-155-154 155c-9 7-20 12-32 12-26 0-47-21-47-47 0-12 5-23 12-32l0 0 188-187c8-9 20-14 33-14s25 5 33 14l188 187c8 9 13 21 13 33s-5 25-13 34l0 0z" horiz-adv-x="1000" />
<glyph glyph-name="angle-left" unicode="&#xf104;" d="M441 350l155 154c7 9 12 20 12 32 0 26-21 47-47 47-12 0-23-5-32-12l0 0-187-188c-9-8-14-20-14-33s5-25 14-33l187-188c9-7 20-12 32-12 26 0 47 21 47 47 0 12-5 23-12 32l0 0z" horiz-adv-x="1000" />
<glyph glyph-name="angle-right" unicode="&#xf105;" d="M658 383l-187 188c-9 7-20 12-32 12-26 0-47-21-47-47 0-12 5-23 12-32l0 0 155-154-155-154c-9-9-14-21-14-35 0-26 21-47 46-47 14 0 26 6 35 15l0 0 187 188c9 8 14 20 14 33s-5 25-14 33l0 0z" horiz-adv-x="1000" />
<glyph glyph-name="angle-up" unicode="&#xf106;" d="M721 321l-188 187c-8 9-20 14-33 14s-25-5-33-14l-188-187c-7-9-12-20-12-32 0-26 21-47 47-47 12 0 23 5 32 12l0 0 154 155 154-155c9-7 20-12 32-12 26 0 47 21 47 47 0 12-5 23-12 32l0 0z" horiz-adv-x="1000" />
<glyph glyph-name="arrow-circle-down" unicode="&#xf0ab;" d="M1000 350c0 276-224 500-500 500s-500-224-500-500c0-276 224-500 500-500v0c276 0 500 224 500 500v0z m-544-263l-188 188c-11 11-19 27-19 45 0 34 28 62 63 62 17 0 33-7 45-19l0 0 81-81v287c0 34 28 62 62 62s63-28 63-62v0-287l80 81c12 12 28 19 45 19 35 0 63-28 63-62 0-18-8-34-19-45l0 0-188-188c-11-11-27-18-44-18s-33 7-44 18v0z" horiz-adv-x="1000" />
<glyph glyph-name="arrow-circle-left" unicode="&#xf0a8;" d="M500-150c276 0 500 224 500 500s-224 500-500 500c-276 0-500-224-500-500v0c0-276 224-500 500-500h0z m-263 544l188 188c11 11 26 17 43 17 35 0 63-28 63-62 0-17-7-32-18-44l0 0-81-80h287c34 0 62-28 62-63s-28-62-62-62v0h-287l81-81c11-12 18-27 18-44 0-34-28-62-63-62-17 0-32 6-43 17l0 0-188 188c-11 11-18 27-18 44s7 33 18 44v0z" horiz-adv-x="1000" />
<glyph glyph-name="arrow-circle-o-down" unicode="&#xf01a;" d="M500 850c-276 0-500-224-500-500s224-500 500-500c276 0 500 224 500 500v0c0 276-224 500-500 500h0z m0-938c-242 0-437 196-437 438s195 438 437 438c242 0 438-196 438-438v0c-1-241-196-437-438-438h0z m154 440l-107-108v325c0 26-21 47-47 47s-47-21-47-47v0-325l-107 108c-9 8-20 12-32 12-26 0-47-21-47-46 0-13 5-24 12-32l0 0 188-188c8-8 20-14 33-14s25 6 33 14l188 188c8 8 12 19 12 32 0 25-21 46-47 46-12 0-23-4-32-12l0 0z" horiz-adv-x="1000" />
<glyph glyph-name="arrow-circle-o-left" unicode="&#xf190;" d="M500 850c-276 0-500-224-500-500s224-500 500-500c276 0 500 224 500 500v0c0 276-224 500-500 500h0z m0-938c-242 0-437 196-437 438s195 438 437 438c242 0 438-196 438-438v0c-1-241-196-437-438-438h0z m219 485h-325l108 107c9 9 15 21 15 35 0 26-21 47-47 47-14 0-26-6-34-15l0 0-188-188c-8-8-14-20-14-33s6-25 14-33l188-188c8-9 20-14 34-14 26 0 47 21 47 46 0 14-6 26-15 35l0 0-107 107h324c26 0 47 21 47 47s-21 47-47 47v0z" horiz-adv-x="1000" />
<glyph glyph-name="arrow-circle-o-right" unicode="&#xf18e;" d="M500 850c-276 0-500-224-500-500s224-500 500-500c276 0 500 224 500 500v0c0 276-224 500-500 500h0z m0-938c-242 0-437 196-437 438s195 438 437 438c242 0 438-196 438-438v0c-1-241-196-437-438-438h0z m64 659c-8 7-19 12-32 12-25 0-46-21-46-47 0-12 4-23 12-32l0 0 108-107h-325c-26 0-47-21-47-47s21-47 47-47v0h325l-108-107c-9-9-15-21-15-35 0-26 21-47 47-47 14 0 26 6 34 15l0 0 188 188c8 8 14 20 14 33s-6 25-14 33l0 0z" horiz-adv-x="1000" />
<glyph glyph-name="arrow-circle-o-up" unicode="&#xf01b;" d="M500 850c-276 0-500-224-500-500s224-500 500-500c276 0 500 224 500 500v0c0 276-224 500-500 500h0z m0-938c-242 0-437 196-437 438s195 438 437 438c242 0 438-196 438-438v0c-1-241-196-437-438-438h0z m33 690c-8 8-20 14-33 14s-25-6-33-14l-188-188c-9-8-15-20-15-34 0-26 21-47 47-47 14 0 26 6 35 15l0 0 107 108v-325c0-26 21-47 47-47s47 21 47 47v0 325l107-108c9-9 21-15 35-15 26 0 47 21 47 47 0 14-6 26-15 34l0 0z" horiz-adv-x="1000" />
<glyph glyph-name="arrow-circle-right" unicode="&#xf0a9;" d="M500 850c-276 0-500-224-500-500s224-500 500-500c276 0 500 224 500 500v0c0 276-224 500-500 500h0z m263-544l-188-188c-11-11-27-19-44-19-35 0-63 28-63 63 0 17 7 33 19 45l0 0 81 81h-287c-34 0-62 28-62 62s28 63 62 63v0h287l-81 80c-12 12-19 28-19 45 0 35 28 63 63 63 17 0 33-8 44-19l0 0 188-188c11-11 18-27 18-44s-7-33-18-44v0z" horiz-adv-x="1000" />
<glyph glyph-name="arrow-circle-up" unicode="&#xf0aa;" d="M0 350c0-276 224-500 500-500s500 224 500 500c0 276-224 500-500 500v0c-276 0-500-224-500-500v0z m544 263l188-188c11-11 17-26 17-43 0-34-28-62-62-62-17 0-32 6-44 17l0 0-80 81v-287c0-34-28-62-63-62s-62 28-62 62v0 287l-81-81c-12-11-27-17-44-17-34 0-62 28-62 62 0 17 6 32 17 43l0 0 188 188c11 11 27 18 44 18s33-7 44-18v0z" horiz-adv-x="1000" />
<glyph glyph-name="arrow-down" unicode="&#xf063;" d="M846 321c-9 8-21 13-33 13s-25-5-34-13l-232-233v637c0 26-21 47-47 47s-47-21-47-47v0-637l-232 233c-9 7-20 12-32 12-26 0-47-21-47-47 0-12 5-23 12-32l0 0 313-312c8-9 20-14 33-14s25 5 33 14l313 312c8 9 13 21 13 33s-5 25-13 34l0 0z" horiz-adv-x="1000" />
<glyph glyph-name="arrow-down-alt" unicode="&#xea6a;" d="M935 394c-5 11-16 19-29 19h-218v343c0 18-14 32-32 32v0h-312c-17 0-31-14-31-32v0-343h-219c-17 0-31-14-31-32 0-8 3-15 8-21l0 0 406-438c6-6 14-9 23-9s17 3 23 9l0 0 406 438c5 6 9 13 9 21 0 5-1 9-3 13l0 0z" horiz-adv-x="1000" />
<glyph glyph-name="arrow-down-left-alt" unicode="&#xea68;" d="M866 497l-219 219c-5 6-13 9-22 9s-16-3-22-9l0 0-246-244-178 181c-6 6-14 10-23 10-17 0-31-14-31-32v0-625c0-17 14-31 31-31v0h625c0 0 0 0 0 0 18 0 32 14 32 31 0 9-4 17-10 22l-181 182 244 243c5 6 9 14 9 22s-4 17-9 22l0 0z" horiz-adv-x="1000" />
<glyph glyph-name="arrow-down-right-alt" unicode="&#xea69;" d="M856 660c-4 2-8 3-12 3-9 0-17-4-22-10v0l-182-181-243 244c-6 6-14 9-22 9s-17-3-23-9l-218-219c-6-5-9-13-9-22s3-16 9-22l0 0 243-246-180-178c-6-6-9-14-9-23 0-17 14-31 31-31h625c17 0 31 14 31 31v0 625c0 13-8 24-19 29l0 0z" horiz-adv-x="1000" />
<glyph glyph-name="arrow-left" unicode="&#xf060;" d="M875 397h-637l233 232c7 9 12 20 12 32 0 26-21 47-47 47-12 0-23-5-32-12l0 0-312-313c-9-8-14-20-14-33s5-25 14-33l312-313c9-8 20-12 32-12 26 0 47 21 47 47 0 12-5 23-12 32l0 0-233 232h637c26 0 47 21 47 47s-21 47-47 47v0z" horiz-adv-x="1000" />
<glyph glyph-name="arrow-left-alt" unicode="&#xea6b;" d="M906 538h-343v218c0 18-14 31-32 31-8 0-15-3-21-8l0 0-437-406c-7-6-10-14-10-23s3-17 10-23l0 0 437-406c6-5 13-9 21-9h0c18 0 32 14 32 32v0 218h343c18 0 32 14 32 32v0 312c0 17-14 31-32 31v0z" horiz-adv-x="1000" />
<glyph glyph-name="arrow-right" unicode="&#xf061;" d="M125 397h637l-233 232c-7 9-12 20-12 32 0 26 21 47 47 47 12 0 23-5 32-12l0 0 312-313c9-8 14-20 14-33s-5-25-14-33l-312-313c-9-8-20-12-32-12-26 0-47 21-47 47 0 12 5 23 13 32l0 0 232 232h-637c-26 0-47 21-47 47s21 47 47 47v0z" horiz-adv-x="1000" />
<glyph glyph-name="arrow-right-alt" unicode="&#xea6c;" d="M928 373l-438 406c-6 5-13 8-21 8-17 0-31-14-31-31v-218h-344c-17 0-31-14-31-32v0-312c0-17 14-31 31-31v0h344v-219c0-18 14-31 31-31 8 0 15 3 21 8l0 0 438 406c6 6 9 14 9 23s-3 17-9 23l0 0z" horiz-adv-x="1000" />
<glyph glyph-name="arrow-up" unicode="&#xf062;" d="M846 446l-313 312c-8 9-20 14-33 14s-25-5-33-14l-313-312c-7-9-12-20-12-32 0-26 21-47 47-47 12 0 23 5 32 12l0 0 232 233v-637c0-26 21-47 47-47s47 21 47 47v0 637l232-233c9-7 20-12 32-12 26 0 47 21 47 47 0 12-5 23-12 32l0 0z" horiz-adv-x="1000" />
<glyph glyph-name="arrow-up-alt" unicode="&#xea6f;" d="M929 340l-406 438c-6 5-14 9-23 9s-17-4-23-9l0 0-406-438c-5-5-8-13-8-21 0-17 14-31 31-31h219v-344c0-17 14-31 31-31v0h312c18 0 32 14 32 31v0 344h218c18 0 31 14 31 31 0 8-3 16-8 21l0 0z" horiz-adv-x="1000" />
<glyph glyph-name="arrow-up-left-alt" unicode="&#xea6d;" d="M866 247l-244 244 181 181c6 6 9 13 9 22 0 17-14 31-31 31h-625c-17 0-31-14-31-31v0-625c0 0 0 0 0 0 0-13 8-24 19-29l0 0c4-2 8-2 12-2 9 0 17 3 23 9l0 0 178 181 246-244c6-6 13-9 22-9s17 3 22 9l219 219c6 5 9 13 9 22s-3 16-9 22l0 0z" horiz-adv-x="1000" />
<glyph glyph-name="arrow-up-right-alt" unicode="&#xea6e;" d="M844 725h-625c-17 0-31-14-31-31 0-9 3-17 9-22l181-179-244-246c-6-6-9-13-9-22s3-16 9-22l219-219c5-6 13-9 22-9s16 3 22 9l244 244 181-181c6-6 13-9 22-9 17 0 31 14 31 31v625c0 17-14 31-31 31v0z" horiz-adv-x="1000" />
<glyph glyph-name="arrows" unicode="&#xf047;" d="M971 383l-125 125c-9 8-20 13-32 13-26 0-47-21-47-47 0-13 5-24 12-32l0 0 45-45h-277v277l45-45c8-7 20-12 32-12 26 0 47 21 47 47 0 12-5 23-13 32l0 0-125 125c-8 8-20 13-33 13s-25-5-33-13l-125-125c-8-9-13-20-13-32 0-26 21-47 47-47 13 0 24 5 32 12l0 0 45 45v-277h-265v12l33 33c8 8 12 20 12 32 0 26-21 47-47 47-12 0-23-5-32-13l0 0-125-125c-8-8-13-20-13-33s5-25 13-33l125-125c9-9 21-15 35-15 26 0 47 21 47 47 0 13-6 26-15 34l0 0-33 33v12h265v-277l-45 45c-8 7-19 12-32 12-26 0-47-21-47-47 0-12 5-23 13-32l0 0 125-125c8-8 20-14 33-14s25 6 33 14l125 125c8 9 13 20 13 32 0 26-21 47-47 47-12 0-24-5-32-13l0 0-45-44v277h277l-45-45c-9-9-14-21-14-34 0-26 21-47 46-47 14 0 26 6 35 15l0 0 125 125c8 8 13 20 13 33s-5 24-13 33l0 0z" horiz-adv-x="1000" />
<glyph glyph-name="arrows-alt" unicode="&#xf0b2;" d="M875 491c26 0 47 21 47 47v0 187c0 26-21 47-47 47v0h-187c-26 0-47-21-47-47s21-47 47-47v0h74l-262-262-262 262h75c25 0 46 21 46 47s-21 47-46 47v0h-188c-26 0-47-21-47-47v0-187c0-26 21-47 47-47s47 21 47 47v0 74l262-262-262-262v75c0 25-21 46-47 46s-47-21-47-46v0-188c0-26 21-47 47-47v0h188c25 0 46 21 46 47s-21 47-46 47v0h-75l262 262 262-262h-74c-26 0-47-21-47-47s21-47 47-47v0h187c26 0 47 21 47 47v0 188c0 25-21 46-47 46s-47-21-47-46v0-75l-262 262 262 262v-74c0-26 21-47 47-47v0z" horiz-adv-x="1000" />
<glyph glyph-name="arrows-h" unicode="&#xf07e;" d="M971 383l-250 250c-9 9-21 15-35 15-26 0-47-21-47-47 0-13 6-25 15-34l0 0 170-170h-648l170 170c9 9 15 21 15 34 0 26-21 47-47 47-14 0-26-6-35-15l0 0-250-250c-8-8-13-20-13-33s5-24 13-33l250-250c9-8 20-13 32-13 26 0 47 21 47 47 0 13-5 24-12 32l0 0-170 170h648l-170-170c-9-8-15-20-15-34 0-26 21-47 47-47 14 0 26 6 35 15l0 0 250 250c8 9 13 20 13 33s-5 25-13 33l0 0z" horiz-adv-x="1000" />
<glyph glyph-name="arrows-v" unicode="&#xf07d;" d="M717 196l-170-170v648l170-170c8-7 19-12 32-12 26 0 47 21 47 47 0 12-5 23-13 32l0 0-250 250c-8 8-20 13-33 13s-25-5-33-13l-250-250c-9-9-15-21-15-35 0-25 21-46 47-46 13 0 25 5 34 14l0 0 170 170v-648l-170 170c-9 9-21 15-34 15-26 0-47-21-47-47 0-14 6-26 15-35l0 0 250-250c8-8 20-13 33-13s25 5 33 13l250 250c8 9 13 20 13 32 0 26-21 47-47 47-13 0-24-5-32-12l0 0z" horiz-adv-x="1000" />
<glyph glyph-name="box-arrow-in-east" unicode="&#xf090;" d="M574 303l-107-107c-9-9-15-21-15-35 0-26 21-47 47-47 13 0 26 6 34 15l0 0 188 188c8 8 13 20 13 33s-5 25-13 33l-188 188c-8 7-19 12-32 12-26 0-47-21-47-47 0-12 5-23 13-32l0 0 107-107h-511c-26 0-47-21-47-47s21-47 47-47v0z m239 485h-625c-70 0-125-56-125-125v0-94c0-17 14-31 31-31s31 14 31 31v0 94c0 34 28 62 63 62v0h625c34 0 62-28 62-62v0-625c0-35-28-63-62-63v0h-625c-35 0-63 28-63 63v0 93c0 18-14 32-31 32s-31-14-31-32v0-93c0-70 55-126 125-126v0h625c69 0 125 56 125 126v0 625c0 69-56 125-125 125v0z" horiz-adv-x="1000" />
<glyph glyph-name="box-arrow-in-ne" unicode="&#xe9cf;" d="M578 163c0-26 21-47 47-47s47 21 47 47v0 312c0 26-21 47-47 47v0h-312c-26 0-47-21-47-47s21-47 47-47v0h197l-358-357c-8-9-13-21-13-33 0-26 21-47 47-47 13 0 24 5 33 13l359 360z m235 625h-625c-70 0-125-56-125-125v0-344c0-17 14-31 31-31s31 14 31 31v0 344c0 34 28 62 63 62v0h625c34 0 62-28 62-62v0-625c0-35-28-63-62-63v0h-344c-17 0-31-14-31-31s14-32 31-32v0h344c69 0 125 56 125 126v0 625c0 69-56 125-125 125v0z" horiz-adv-x="1000" />
<glyph glyph-name="box-arrow-in-north" unicode="&#xe9d0;" d="M688 303c25 0 46 21 46 47 0 13-5 25-13 33v0l-188 188c-8 8-20 13-33 13s-25-5-33-13l-188-188c-9-8-15-21-15-34 0-26 21-47 47-47 14 0 26 6 35 15l0 0 107 107v-512c0-25 21-46 47-46s47 21 47 46v0 512l107-107c9-9 20-14 33-14 0 0 0 0 0 0h0z m125 485h-625c-70 0-125-56-125-125v0-625c0-70 55-126 125-126v0h93c18 0 32 14 32 32s-14 31-32 31v0h-93c-35 0-63 28-63 63v0 625c0 34 28 62 63 62v0h625c34 0 62-28 62-62v0-625c0-35-28-63-62-63v0h-94c-17 0-31-14-31-31s14-32 31-32v0h94c69 0 125 56 125 126v0 625c0 69-56 125-125 125v0z" horiz-adv-x="1000" />
<glyph glyph-name="box-arrow-in-nw" unicode="&#xe9d1;" d="M490 428h198c25 0 46 21 46 47s-21 47-46 47v0h-313c-26 0-47-21-47-47v0-312c0-26 21-47 47-47s47 21 47 47v0 201l359-360c9-8 21-14 34-14 26 0 47 21 47 47 0 13-6 25-14 34l0 0z m323 360h-625c-70 0-125-56-125-125v0-625c0-70 55-126 125-126v0h343c18 0 32 14 32 32s-14 31-32 31v0h-343c-35 0-63 28-63 63v0 625c0 34 28 62 63 62v0h625c34 0 62-28 62-62v0-344c0-17 14-31 31-31s32 14 32 31v0 344c0 69-56 125-125 125v0z" horiz-adv-x="1000" />
<glyph glyph-name="box-arrow-in-se" unicode="&#xe9d2;" d="M510 272h-197c-26 0-47-21-47-47s21-47 47-47v0h312c26 0 47 21 47 47v0 313c0 25-21 46-47 46s-47-21-47-46v0-202l-359 360c-9 8-20 13-33 13-26 0-47-21-47-46 0-13 5-25 13-34l0 0z m303 516h-344c-17 0-31-14-31-32s14-31 31-31v0h344c34 0 62-28 62-62v0-625c0-35-28-63-62-63v0h-625c-35 0-63 28-63 63v0 343c0 18-14 32-31 32s-31-14-31-32v0-343c0-70 55-126 125-126v0h625c69 0 125 56 125 126v0 625c0 69-56 125-125 125v0z" horiz-adv-x="1000" />
<glyph glyph-name="box-arrow-in-south" unicode="&#xe9d3;" d="M279 383c-8-8-13-20-13-33s5-25 13-33l188-188c8-8 20-13 33-13s25 5 33 13l188 188c7 8 12 19 12 32 0 26-21 47-47 47-12 0-23-5-32-13l0 0-107-107v511c0 26-21 47-47 47s-47-21-47-47v0-511l-107 107c-9 9-21 14-34 14s-24-5-33-14l0 0z m534 405h-94c-17 0-31-14-31-32s14-31 31-31v0h94c34 0 62-28 62-62v0-625c0-35-28-63-62-63v0h-625c-35 0-63 28-63 63v0 625c0 34 28 62 63 62v0h93c18 0 32 14 32 31s-14 32-32 32v0h-93c-70 0-125-56-125-125v0-625c0-70 55-126 125-126v0h625c69 0 125 56 125 126v0 625c0 69-56 125-125 125v0z" horiz-adv-x="1000" />
<glyph glyph-name="box-arrow-in-sw" unicode="&#xe9d4;" d="M422 538c0 25-21 46-47 46s-47-21-47-46v0-313c0-26 21-47 47-47v0h313c25 0 46 21 46 47s-21 47-46 47v0h-198l358 357c8 9 13 21 13 34 0 25-21 46-47 46-12 0-24-5-33-13l-359-360z m484-125c-17 0-31-14-31-32v0-343c0-35-28-63-62-63v0h-625c-35 0-63 28-63 63v0 625c0 34 28 62 63 62v0h343c18 0 32 14 32 31s-14 32-32 32v0h-343c-70 0-125-56-125-125v0-625c0-70 55-126 125-126v0h625c69 0 125 56 125 126v0 343c0 18-14 32-32 32v0z" horiz-adv-x="1000" />
<glyph glyph-name="box-arrow-in-west" unicode="&#xe9d5;" d="M938 397h-512l107 107c9 9 15 21 15 35 0 26-21 47-47 47-13 0-25-6-34-15l0 0-188-188c-8-8-13-20-13-33s5-25 13-33l188-188c9-9 21-14 34-14 26 0 47 21 47 46 0 14-6 26-15 35l0 0-107 107h512c26 0 47 21 47 47s-21 47-47 47v0z m-32-234c-17 0-31-14-31-32v0-93c0-35-28-63-62-63v0h-625c-35 0-63 28-63 63v0 625c0 34 28 62 63 62v0h625c34 0 62-28 62-62v0-94c0-17 14-31 31-31s32 14 32 31v0 94c0 69-56 125-125 125v0h-625c-70 0-125-56-125-125v0-625c0-70 55-126 125-126v0h625c69 0 125 56 125 126v0 93c0 18-14 32-32 32v0z" horiz-adv-x="1000" />
<glyph glyph-name="box-arrow-out-east" unicode="&#xf08b;" d="M971 383l-188 188c-8 7-19 12-32 12-26 0-47-21-47-47 0-12 5-23 13-32l0 0 107-107h-511c-26 0-47-21-47-47s21-47 47-47h511l-107-107c-9-9-15-21-15-35 0-26 21-47 47-47 13 0 26 6 34 15l0 0 188 188c8 8 13 20 13 33s-5 25-13 33l0 0z m-65-314c-17 0-31-14-31-31v0c0-35-28-63-62-63v0h-625c-35 0-63 28-63 63v0 625c0 34 28 62 63 62v0h625c34 0 62-28 62-62v0c0-18 14-32 31-32s32 14 32 32v0c0 69-56 125-125 125v0h-625c-70 0-125-56-125-125v0-625c0-70 55-126 125-126v0h625c69 0 125 56 125 126v0c0 17-14 31-32 31v0z" horiz-adv-x="1000" />
<glyph glyph-name="external-link" unicode="&#xf08e;" d="M375 178c0 0 0 0 0 0 13 0 25 5 33 14l360 359v-201c0-26 21-47 47-47s46 21 46 47v0 313c0 25-21 46-46 46v0h-313c-26 0-47-21-47-46s21-47 47-47v0h197l-357-358c-9-8-14-20-14-33 0-26 21-47 47-47h0z m531-15c-17 0-31-14-31-32v0-93c0-35-28-63-62-63v0h-625c-35 0-63 28-63 63v0 625c0 34 28 62 63 62v0h93c18 0 32 14 32 31s-14 32-32 32v0h-93c-70 0-125-56-125-125v0-625c0-70 55-126 125-126v0h625c69 0 125 56 125 126v0 93c0 18-14 32-32 32v0z" horiz-adv-x="1000" />
<glyph glyph-name="external-link" unicode="&#xf08e;" d="M375 178c0 0 0 0 0 0 13 0 25 5 33 14l360 359v-201c0-26 21-47 47-47s46 21 46 47v0 313c0 25-21 46-46 46v0h-313c-26 0-47-21-47-46s21-47 47-47v0h197l-357-358c-9-8-14-20-14-33 0-26 21-47 47-47h0z m531-15c-17 0-31-14-31-32v0-93c0-35-28-63-62-63v0h-625c-35 0-63 28-63 63v0 625c0 34 28 62 63 62v0h93c18 0 32 14 32 31s-14 32-32 32v0h-93c-70 0-125-56-125-125v0-625c0-70 55-126 125-126v0h625c69 0 125 56 125 126v0 93c0 18-14 32-32 32v0z" horiz-adv-x="1000" />
<glyph glyph-name="box-arrow-out-north" unicode="&#xe9d6;" d="M346 567l107 107v-511c0-26 21-47 47-47s47 21 47 47v0 511l107-107c9-8 20-13 32-13 26 0 47 21 47 47 0 13-5 24-12 32l0 0-188 188c-8 8-20 13-33 13s-25-5-33-13l-188-188c-7-8-12-19-12-32 0-26 21-47 47-47 12 0 23 5 32 13l0 0z m467 221c-18 0-32-14-32-32s14-31 32-31v0c34 0 62-28 62-62v0-625c0-35-28-63-62-63v0h-625c-35 0-63 28-63 63v0 625c0 34 28 62 63 62v0c17 0 31 14 31 31s-14 32-31 32v0c-70 0-125-56-125-125v0-625c0-70 55-126 125-126v0h625c69 0 125 56 125 126v0 625c0 69-56 125-125 125v0z" horiz-adv-x="1000" />
<glyph glyph-name="box-arrow-out-nw" unicode="&#xe9d7;" d="M186 303c25 0 46 21 46 47v0 201l360-359c8-8 19-13 32-13 26 0 47 21 47 47 0 13-5 24-13 32l0 0-357 358h197c26 0 47 21 47 47s-21 46-47 46v0h-313c-25 0-46-21-46-46v0-313c0-26 21-47 46-47v0z m627 485h-94c-17 0-31-14-31-32s14-31 31-31v0h94c34 0 62-28 62-62v0-625c0-35-28-63-62-63v0h-625c-35 0-63 28-63 63v0 93c0 18-14 32-31 32s-31-14-31-32v0-93c0-70 55-126 125-126v0h625c69 0 125 56 125 126v0 625c0 69-56 125-125 125v0z" horiz-adv-x="1000" />
<glyph glyph-name="box-arrow-out-se" unicode="&#xe9d8;" d="M815 397c-26 0-47-21-47-47v0-201l-360 359c-8 8-19 13-32 13-26 0-47-21-47-47 0-13 5-24 13-32l0 0 357-358h-197c-26 0-47-21-47-47s21-46 47-46v0h313c25 0 46 21 46 46v0 313c0 26-21 47-46 47v0z m-2 391h-625c-70 0-125-56-125-125v0-625c0-70 55-126 125-126v0h93c18 0 32 14 32 32s-14 31-32 31v0h-93c-35 0-63 28-63 63v0 625c0 34 28 62 63 62v0h625c34 0 62-28 62-62v0-94c0-17 14-31 31-31s32 14 32 31v0 94c0 69-56 125-125 125v0z" horiz-adv-x="1000" />
<glyph glyph-name="box-arrow-out-south" unicode="&#xe9d9;" d="M654 133l-107-107v512c0 25-21 46-47 46s-47-21-47-46v0-512l-107 107c-9 8-20 13-32 13-26 0-47-21-47-47 0-13 5-24 12-32l0 0 188-188c8-8 20-13 33-13s25 5 33 13l188 188c8 8 12 19 12 32 0 26-21 47-47 47-12 0-23-5-32-13l0 0z m159 655h-625c-70 0-125-56-125-125v0-625c0-70 55-126 125-126v0c17 0 31 14 31 32s-14 31-31 31v0c-35 0-63 28-63 63v0 625c0 34 28 62 63 62v0h625c34 0 62-28 62-62v0-625c0-35-28-63-62-63v0c-18 0-32-14-32-31s14-32 32-32v0c69 0 125 56 125 126v0 625c0 69-56 125-125 125v0z" horiz-adv-x="1000" />
<glyph glyph-name="box-arrow-out-sw" unicode="&#xe9da;" d="M592 508l-358-357v197c0 26-21 47-46 47s-47-21-47-47v0-312c0-26 21-47 47-47v0h312c26 0 47 21 47 47s-21 46-47 46v0h-201l359 360c8 8 13 19 13 32 0 26-21 47-47 47-13 0-24-5-32-13l0 0z m221 280h-625c-70 0-125-56-125-125v0-94c0-17 14-31 31-31s31 14 31 31v0 94c0 34 28 62 63 62v0h625c34 0 62-28 62-62v0-625c0-35-28-63-62-63v0h-94c-17 0-31-14-31-31s14-32 31-32v0h94c69 0 125 56 125 126v0 625c0 69-56 125-125 125v0z" horiz-adv-x="1000" />
<glyph glyph-name="box-arrow-out-west" unicode="&#xe9db;" d="M250 116c26 0 47 21 47 47 0 12-5 24-14 33l-107 107h512c25 0 46 21 46 47s-21 47-46 47v0h-512l107 107c8 9 13 20 13 32 0 26-21 47-47 47-13 0-24-5-32-12l0 0-188-188c-8-8-13-20-13-33s5-25 13-33l188-188c8-8 20-13 33-13 0 0 0 0 0 0h0z m563 672h-625c-70 0-125-56-125-125v0c0-18 14-32 31-32s31 14 31 32v0c0 34 28 62 63 62v0h625c34 0 62-28 62-62v0-625c0-35-28-63-62-63v0h-625c-35 0-63 28-63 63v0c0 17-14 31-31 31s-31-14-31-31v0c0-70 55-126 125-126v0h625c69 0 125 56 125 126v0 625c0 69-56 125-125 125v0z" horiz-adv-x="1000" />
<glyph glyph-name="caret-down" unicode="&#xf0d7;" d="M666 435c-8 14-23 24-41 24 0 0 0 0 0 0h-250c-26 0-47-21-47-46 0-10 3-19 8-27l0 1 125-188c9-13 23-21 39-21s31 8 39 21l0 0 125 188c5 7 8 16 8 26 0 8-2 15-6 22l0 0z" horiz-adv-x="1000" />
<glyph glyph-name="caret-left" unicode="&#xf0d9;" d="M585 516c-7 4-14 6-22 6-10 0-19-3-27-8l1 0-188-125c-13-8-21-23-21-39s8-30 21-39l0 0 188-125c7-5 16-8 26-8 25 0 46 21 46 47v0 250c0 18-10 33-24 41l0 0z" horiz-adv-x="1000" />
<glyph glyph-name="caret-right" unicode="&#xf0da;" d="M651 389l-187 125c-8 5-17 8-26 8-26 0-47-21-47-47v0-250c0-18 10-33 24-41l1 0c6-4 14-6 22-6 9 0 18 3 26 8l0 0 187 125c13 9 21 23 21 39s-8 31-21 39l0 0z" horiz-adv-x="1000" />
<glyph glyph-name="toggle-down" unicode="&#xf150;" d="M813 788h-625c-70 0-125-56-125-125v0-625c0-70 55-126 125-126v0h625c69 0 125 56 125 126v0 625c0 69-56 125-125 125v0z m62-750c0-35-28-63-62-63v0h-625c-35 0-63 28-63 63v0 625c0 34 28 62 63 62v0h625c34 0 62-28 62-62v0z m-250 421h-250c-26 0-47-21-47-46 0-10 3-19 8-27l0 1 125-188c9-13 23-21 39-21s31 8 39 21l0 0 125 188c5 7 8 16 8 26 0 25-21 46-47 46v0z" horiz-adv-x="1000" />
<glyph glyph-name="toggle-left" unicode="&#xf191;" d="M813 788h-625c-70 0-125-56-125-125v0-625c0-70 55-126 125-126v0h625c69 0 125 56 125 126v0 625c0 69-56 125-125 125v0z m62-750c0-35-28-63-62-63v0h-625c-35 0-63 28-63 63v0 625c0 34 28 62 63 62v0h625c34 0 62-28 62-62v0z m-290 478c-7 4-14 6-22 6-10 0-19-3-27-8l1 0-188-125c-13-8-21-23-21-39s8-30 21-39l0 0 188-125c7-5 16-8 26-8 25 0 46 21 46 47v0 250c0 18-10 33-24 41l0 0z" horiz-adv-x="1000" />
<glyph glyph-name="toggle-right" unicode="&#xf152;" d="M464 514c-8 5-17 8-26 8-26 0-47-21-47-47v0-250c0-18 10-33 24-41l1 0c6-4 14-6 22-6 9 0 18 3 26 8l0 0 187 125c13 9 21 23 21 39s-8 31-21 39l0 0z m349 274h-625c-70 0-125-56-125-125v0-625c0-70 55-126 125-126v0h625c69 0 125 56 125 126v0 625c0 69-56 125-125 125v0z m62-750c0-35-28-63-62-63v0h-625c-35 0-63 28-63 63v0 625c0 34 28 62 63 62v0h625c34 0 62-28 62-62v0z" horiz-adv-x="1000" />
<glyph glyph-name="toggle-up" unicode="&#xf151;" d="M813 788h-625c-70 0-125-56-125-125v0-625c0-70 55-126 125-126v0h625c69 0 125 56 125 126v0 625c0 69-56 125-125 125v0z m62-750c0-35-28-63-62-63v0h-625c-35 0-63 28-63 63v0 625c0 34 28 62 63 62v0h625c34 0 62-28 62-62v0z m-336 463c-9 12-23 20-39 20s-30-8-39-20l0 0-125-187c-5-8-8-17-8-26 0-26 21-47 47-47h250c26 0 47 21 47 47 0 9-3 18-8 26l0 0z" horiz-adv-x="1000" />
<glyph glyph-name="caret-up" unicode="&#xf0d8;" d="M664 314l-125 187c-9 12-23 20-39 20s-30-8-39-20l0 0-125-187c-5-8-8-17-8-26 0-26 21-47 47-47h250c26 0 47 21 47 47 0 9-3 18-8 26l0 0z" horiz-adv-x="1000" />
<glyph glyph-name="chevron-circle-down" unicode="&#xf13a;" d="M1000 350c0 276-224 500-500 500s-500-224-500-500c0-276 224-500 500-500v0c276 0 500 224 500 500v0z m-544-169l-188 187c-11 12-17 27-17 44 0 34 28 62 62 62 17 0 32-6 44-17l0 0 143-144 143 144c12 11 28 19 45 19 35 0 63-28 63-63 0-17-8-33-19-45l0 0-188-187c-11-11-27-18-44-18s-33 7-44 18v0z" horiz-adv-x="1000" />
<glyph glyph-name="chevron-circle-left" unicode="&#xf137;" d="M0 350c0-276 224-500 500-500s500 224 500 500c0 276-224 500-500 500v0c-276 0-500-224-500-500v0z m331 44l187 188c12 11 28 19 45 19 35 0 63-28 63-63 0-17-8-33-19-45l0 0-144-143 144-143c11-12 19-28 19-45 0-35-28-63-63-63-17 0-33 8-45 19l0 0-187 188c-11 11-18 27-18 44s7 33 18 44v0z" horiz-adv-x="1000" />
<glyph glyph-name="chevron-circle-right" unicode="&#xf138;" d="M500 850c-276 0-500-224-500-500s224-500 500-500c276 0 500 224 500 500v0c0 276-224 500-500 500h0z m169-544l-187-188c-12-11-27-17-44-17-34 0-62 28-62 62 0 17 6 32 17 44l0 0 144 143-144 143c-11 12-17 27-17 44 0 34 28 62 62 62 17 0 32-6 44-17l0 0 187-188c12-11 19-27 19-44s-7-33-19-44v0z" horiz-adv-x="1000" />
<glyph glyph-name="chevron-circle-up" unicode="&#xf139;" d="M500 850c-276 0-500-224-500-500s224-500 500-500c276 0 500 224 500 500v0c0 276-224 500-500 500h0z m44-331l188-187c11-12 17-27 17-44 0-34-28-62-62-62-17 0-32 6-44 17l0 0-143 144-143-144c-12-11-28-19-45-19-35 0-63 28-63 63 0 17 8 33 19 45l0 0 188 187c11 12 27 19 44 19s33-7 44-19v0z" horiz-adv-x="1000" />
<glyph glyph-name="chevron-down" unicode="&#xf078;" d="M908 571c-8 8-20 13-33 13s-25-5-33-13l-342-342-342 342c-8 7-19 12-32 12-26 0-47-21-47-47 0-12 5-23 13-32l0 0 375-375c8-8 20-13 33-13s25 5 33 13l375 375c9 9 14 21 14 33s-5 25-14 34l0 0z" horiz-adv-x="1000" />
<glyph glyph-name="chevron-left" unicode="&#xf053;" d="M379 350l342 342c7 8 12 19 12 32 0 26-21 47-47 47-12 0-23-5-32-13l0 0-375-375c-8-8-13-20-13-33s5-25 13-33l375-375c9-8 20-13 32-13 26 0 47 21 47 47 0 12-5 24-12 32l0 0z" horiz-adv-x="1000" />
<glyph glyph-name="chevron-right" unicode="&#xf054;" d="M721 383l-375 375c-9 8-20 13-32 13-26 0-47-21-47-47 0-13 5-24 12-32l0 0 342-342-342-342c-9-9-14-21-14-34 0-26 21-47 46-47 14 0 26 6 35 15l0 0 375 375c8 8 13 20 13 33s-5 25-13 33l0 0z" horiz-adv-x="1000" />
<glyph glyph-name="chevron-up" unicode="&#xf077;" d="M908 196l-375 375c-8 8-20 13-33 13s-25-5-33-13l-375-375c-8-9-13-20-13-32 0-26 21-47 47-47 13 0 24 5 32 12l0 0 342 342 342-342c8-7 20-12 32-12 26 0 47 21 47 47 0 12-5 23-13 32l0 0z" horiz-adv-x="1000" />
<glyph glyph-name="circle-arrow-in-east" unicode="&#xe9dc;" d="M467 196c-9-9-15-21-15-35 0-26 21-47 47-47 13 0 26 6 34 15l0 0 188 188c8 8 13 20 13 33s-5 25-13 33l-188 188c-8 7-19 12-32 12-26 0-47-21-47-47 0-12 5-23 13-32l0 0 107-107h-511c-26 0-47-21-47-47s21-47 47-47v0h511z m33 654c-186-1-347-103-432-254l-2-2c-2-5-4-10-4-15 0-18 14-32 32-32 11 0 22 7 27 16l0 0c76 135 219 225 382 225 242 0 438-196 438-438s-196-437-438-437c-163 0-306 89-381 222l-1 2c-5 10-16 16-27 16-17 0-31-14-31-31 0-6 1-11 4-16l0 1c87-153 249-255 434-255 276 0 499 224 499 499s-223 499-499 499c0 0-1 0-1 0h0z" horiz-adv-x="1000" />
<glyph glyph-name="circle-arrow-in-ne" unicode="&#xe9dd;" d="M578 163c0-26 21-47 47-47s47 21 47 47v0 312c0 26-21 47-47 47v0h-312c-26 0-47-21-47-47s21-47 47-47v0h197l-358-357c-8-9-13-21-13-33 0-26 21-47 47-47 13 0 24 5 33 13l359 360z m275 540c-90 91-215 148-354 148-276 0-499-224-499-499 0-49 7-96 20-141l-1 3c3-14 16-24 31-24 17 0 31 14 31 31 0 4-1 7-2 10l0 0c-10 36-16 78-16 120 0 243 196 439 438 439s439-196 439-439c0-242-197-438-439-438-42 0-84 6-123 17l3-1c-2 1-5 2-8 2-17 0-31-14-31-32 0-14 9-26 22-30l0 0c41-12 88-19 137-19 0 0 1 0 1 0h0c0 0 1 0 1 0 137 0 260 56 350 145l0 0c91 91 147 216 147 354s-56 264-147 354l0 0z" horiz-adv-x="1000" />
<glyph glyph-name="circle-arrow-in-north" unicode="&#xe9de;" d="M721 383l-188 188c-8 8-20 13-33 13s-25-5-33-13l-188-188c-9-8-15-21-15-34 0-26 21-47 47-47 14 0 26 6 35 15l0 0 107 107v-512c0-25 21-46 47-46s47 21 47 46v0 512l107-107c9-9 21-15 35-15 26 0 47 21 47 47 0 13-6 25-15 34l0 0z m-221 467c-1 0-1 0-2 0-275 0-498-223-498-498 0-186 102-349 254-434l2-2c5-2 10-4 16-4 17 0 31 14 31 32 0 11-7 22-16 27l0 0c-135 76-225 219-225 382 0 242 196 438 438 438s437-196 437-438c0-163-89-306-222-381l-2-1c-9-5-16-16-16-27 0-17 14-31 31-31 0 0 0 0 0 0h0c6 0 11 1 16 4l0-1c154 87 256 250 256 436 0 275-223 498-498 498-1 0-1 0-2 0h0z" horiz-adv-x="1000" />
<glyph glyph-name="circle-arrow-in-nw" unicode="&#xe9df;" d="M490 428h198c25 0 46 21 46 47s-21 47-46 47v0h-313c-26 0-47-21-47-47v0-312c0-26 21-47 47-47s47 21 47 47v0 201l359-360c9-8 21-14 34-14 26 0 47 21 47 47 0 13-6 25-14 34l0 0z m365 275c-90 91-216 147-354 147-277 0-501-224-501-501 0-138 56-264 147-354l0 0c90-90 213-145 350-145 1 0 1 0 1 0h0c1 0 1 0 1 0 49 0 96 7 140 20l-3-1c13 4 23 16 23 30 0 17-14 32-32 32-3 0-6-1-8-2l0 0c-36-10-77-16-120-16-242 0-438 196-438 438s196 439 438 439c242 0 438-197 438-439 0-42-6-84-17-123l1 3c-1-2-2-6-2-9 0-17 14-31 32-31 14 0 26 10 30 23l0 0c12 41 19 89 19 138 0 137-55 261-145 351l0 0z" horiz-adv-x="1000" />
<glyph glyph-name="circle-arrow-in-se" unicode="&#xe9e0;" d="M510 272h-197c-26 0-47-21-47-47s21-47 47-47v0h312c26 0 47 21 47 47v0 313c0 25-21 46-47 46s-47-21-47-46v0-202l-359 360c-9 8-20 13-33 13-26 0-47-21-47-46 0-13 5-25 13-34l0 0z m343 433c-90 90-214 145-351 145-49 0-96-7-141-20l3 1c-12-4-22-16-22-30 0-17 14-31 32-31 2 0 5 0 7 1l0 0c36 10 77 16 120 16 242 0 439-196 439-438s-197-439-439-439c-242 0-438 197-438 439 0 43 6 84 17 123l-1-3c1 2 2 6 2 9 0 17-14 31-31 31-15 0-27-10-31-23l0 0c-11-41-18-87-18-135 0-276 224-500 500-500s500 224 500 500c0 138-57 264-148 354l0 0z" horiz-adv-x="1000" />
<glyph glyph-name="circle-arrow-in-south" unicode="&#xe9e1;" d="M279 317l188-188c8-8 20-13 33-13s25 5 33 13l188 188c7 8 12 19 12 32 0 26-21 47-47 47-12 0-23-5-32-13l0 0-107-107v511c0 26-21 47-47 47s-47-21-47-47v0-511l-107 107c-9 8-20 13-32 13-26 0-47-21-47-47 0-13 5-24 12-32l0 0z m465 467c-5 2-10 4-15 4-18 0-32-14-32-32 0-11 7-22 16-27l0 0c135-76 225-219 225-382 0-242-196-438-438-438s-437 196-437 438c0 163 89 306 222 381l2 1c9 5 16 16 16 27 0 18-14 32-31 32-6 0-11-2-16-4l0 0c-154-88-256-250-256-437 0-276 224-500 500-500s500 224 500 500c0 187-102 349-254 435l-2 2z" horiz-adv-x="1000" />
<glyph glyph-name="circle-arrow-in-sw" unicode="&#xe9e2;" d="M422 538c0 25-21 46-47 46s-47-21-47-46v0-313c0-26 21-47 47-47v0h313c25 0 46 21 46 47s-21 47-46 47v0h-198l358 357c8 9 13 21 13 34 0 25-21 46-47 46-12 0-24-5-33-13l-359-360z m559-52c-4 13-16 23-30 23-18 0-32-14-32-31 0-4 1-7 2-10l0 1c10-36 16-78 16-120 0-242-196-439-438-439s-439 197-439 439c0 242 197 438 439 438 43 0 84-6 123-17l-3 1c2-1 5-1 8-1 14 0 26 9 30 22l0 0c1 3 2 6 2 9 0 14-10 26-23 30l0 0c-41 12-88 19-137 19-277 0-501-224-501-501s224-501 501-501c277 0 501 224 501 501 0 49-7 96-20 140l1-3z" horiz-adv-x="1000" />
<glyph glyph-name="circle-arrow-in-west" unicode="&#xe9e3;" d="M938 397h-512l107 107c9 9 15 21 15 35 0 26-21 47-47 47-13 0-25-6-34-15l0 0-188-188c-8-8-13-20-13-33s5-25 13-33l188-188c9-9 21-14 34-14 26 0 47 21 47 46 0 14-6 26-15 35l0 0-107 107h512c26 0 47 21 47 47s-21 47-47 47v0z m-16-248c-5 2-10 4-16 4-11 0-22-6-27-16l0 0c-76-135-219-224-382-224-242 0-438 195-438 437s196 438 438 438c163 0 306-90 381-223l1-2c5-9 16-16 27-16 18 0 32 14 32 31 0 6-2 11-4 16l0 0c-88 154-250 256-437 256-276 0-500-224-500-500s224-500 500-500c187 0 349 102 435 254l2 2c2 5 4 10 4 16 0 11-7 22-16 27l0 0z" horiz-adv-x="1000" />
<glyph glyph-name="circle-arrow-out-east" unicode="&#xe9e4;" d="M971 383l-188 188c-8 7-19 12-32 12-26 0-47-21-47-47 0-12 5-23 13-32l0 0 107-107h-511c-26 0-47-21-47-47s21-47 47-47h511l-107-107c-9-9-15-21-15-35 0-26 21-47 47-47 13 0 26 6 34 15l0 0 188 188c8 8 13 20 13 33s-5 25-13 33l0 0z m-267-419c-59-32-129-52-203-52 0 0-1 0-1 0h0c-242 0-437 196-437 438s195 438 437 438v0c0 0 1 0 1 0 75 0 144-20 205-53l-2 1c4-2 9-4 15-4 17 0 31 14 31 32 0 11-6 22-16 27l0 0c-67 37-148 59-233 59 0 0-1 0-1 0h0c-276 0-500-224-500-500s224-500 500-500v0c0 0 1 0 1 0 85 0 165 22 235 60l-2-1c10 5 16 16 16 27 0 18-14 32-31 32-6 0-11-2-15-4l0 0z" horiz-adv-x="1000" />
<glyph glyph-name="circle-arrow-out-ne" unicode="&#xe9e5;" d="M563 616h136l-357-358c-9-8-15-21-15-34 0-26 21-47 47-47 13 0 26 6 34 15l0 0 358 357v-137c0-25 21-46 46-46s47 21 47 46v0 250c0 26-21 47-47 47v0h-250c-25 0-46-21-46-47s21-46 46-46v0z m393-374c-2 1-6 2-9 2-14 0-26-10-30-23l0 0c-21-71-58-132-107-180l0 0c-80-80-189-129-310-129-241 0-437 196-437 438 0 121 49 230 128 309v0c49 49 109 87 177 107l3 1c14 4 24 16 24 30 0 18-14 32-31 32-4 0-8-1-11-2l0 0c-81-25-151-67-207-123l0 0c-90-91-146-216-146-354 0-276 224-500 500-500 138 0 263 56 354 146v0c56 56 98 126 122 204l1 3c1 3 1 6 1 9 0 14-9 26-22 30l0 0z" horiz-adv-x="1000" />
<glyph glyph-name="circle-arrow-out-north" unicode="&#xe9e6;" d="M346 567l107 107v-511c0-26 21-47 47-47s47 21 47 47v0 511l107-107c9-8 20-13 32-13 26 0 47 21 47 47 0 13-5 24-12 32l0 0-188 188c-8 8-20 13-33 13s-25-5-33-13l-188-188c-7-8-12-19-12-32 0-26 21-47 47-47 12 0 23 5 32 13l0 0z m595 17c-5 9-16 15-27 15-17 0-31-14-31-31 0-5 1-10 3-14l0 0c32-59 52-129 52-203 0 0 0-1 0-1v0c0-241-196-437-438-437s-437 196-437 437v0c0 0 0 1 0 1 0 75 19 144 52 205l-1-2c2 4 3 9 3 14 0 17-14 31-31 31-11 0-21-6-27-15l0 0c-37-67-59-147-59-232 0-1 0-1 0-2v0c0-276 224-500 500-500s500 224 500 500v0c0 1 0 1 0 2 0 85-22 165-60 234l1-2z" horiz-adv-x="1000" />
<glyph glyph-name="circle-arrow-out-nw" unicode="&#xe9e7;" d="M188 366c25 0 46 21 46 47v0 136l358-357c8-8 19-13 32-13 26 0 47 21 47 47 0 13-5 24-13 32l0 0-357 358h136c26 0 47 21 47 47s-21 46-47 46v0h-250c-25 0-46-21-46-46v0-250c0-26 21-47 46-47v0z m666 338c-56 56-126 98-204 122l-3 1c-3 1-7 2-11 2-17 0-31-14-31-31 0-15 10-27 24-31l0 0c71-21 131-58 180-108l0 0c80-79 128-188 128-309 0-242-195-438-437-438-121 0-230 49-309 129v0c-50 49-87 109-107 177l-1 3c-4 13-16 23-30 23-17 0-31-14-31-32 0-3 0-6 1-9l0 0c25-81 67-150 123-207l0 0c91-90 216-146 354-146 276 0 500 224 500 500 0 138-56 263-146 354v0z" horiz-adv-x="1000" />
<glyph glyph-name="circle-arrow-out-se" unicode="&#xe9e8;" d="M813 334c-26 0-47-21-47-46v0-137l-358 357c-8 8-19 13-32 13-26 0-47-21-47-47 0-13 5-24 13-32l0 0 357-358h-136c-26 0-47-21-47-47s21-46 47-46v0h250c25 0 46 21 46 46v0 250c0 26-21 47-46 47v0z m164 163c-25 81-67 151-123 207l0 0c-91 90-216 146-354 146-276 0-500-224-500-500 0-138 56-263 146-354v0c56-56 126-98 204-122l3-1c3-1 6-1 9-1h0c17 0 31 14 31 31 0 14-9 26-22 30l0 0c-71 21-132 58-180 108l0 0c-80 79-129 188-129 309 0 242 196 438 438 438 121 0 230-49 309-129v0c49-48 87-109 107-177l1-3c4-13 16-23 30-23 17 0 31 14 31 32 0 3 0 6-1 9l0 0z" horiz-adv-x="1000" />
<glyph glyph-name="circle-arrow-out-south" unicode="&#xe9e9;" d="M654 133l-107-107v512c0 25-21 46-47 46s-47-21-47-46v0-512l-107 107c-9 8-20 13-32 13-26 0-47-21-47-47 0-13 5-24 12-32l0 0 188-188c8-8 20-13 33-13s25 5 33 13l188 188c8 8 12 19 12 32 0 26-21 47-47 47-12 0-23-5-32-13l0 0z m-154 717c-276 0-500-224-500-500v0c0 0 0-1 0-1 0-85 22-165 60-235l-1 2c6-9 16-15 27-15 17 0 31 14 31 31 0 5-1 10-3 14l0 0c-32 59-51 129-51 203 0 0 0 1 0 1v0c0 242 195 437 437 437s438-195 438-437v0c0 0 0-1 0-1 0-75-20-144-53-205l1 2c-2-4-4-10-4-15 0-12 7-22 16-27l1 0c4-3 9-4 14-4h0c12 0 23 6 28 16l0 0c37 67 59 148 59 233 0 0 0 1 0 1v0c0 276-224 500-500 500h0z" horiz-adv-x="1000" />
<glyph glyph-name="circle-arrow-out-sw" unicode="&#xe9ea;" d="M438 84h-137l357 358c8 8 13 19 13 32 0 26-21 47-47 47-13 0-24-5-32-13l0 0-358-357v136c0 26-21 47-47 47s-46-21-46-47v0-250c0-25 21-46 46-46v0h250c26 0 47 21 47 46s-21 47-47 47v0z m416 620c-91 90-216 146-354 146s-263-56-354-146l0 0c-56-56-98-126-122-204l-1-3c-1-3-1-6-1-9 0-18 14-32 31-32 14 0 26 10 30 23l0 0c21 71 59 132 108 180l0 0c79 80 188 129 309 129 242 0 438-196 438-438 0-121-49-230-129-309v0c-48-50-109-87-177-107l-3-1c-13-4-22-16-22-30 0-17 14-31 31-31h0c3 0 6 0 9 1l0 0c81 25 151 67 207 123l0 0c90 91 146 216 146 354s-56 263-146 354l0 0z" horiz-adv-x="1000" />
<glyph glyph-name="circle-arrow-out-west" unicode="&#xe9eb;" d="M283 196l-107 107h512c25 0 46 21 46 47s-21 47-46 47v0h-512l107 107c8 9 13 20 13 32 0 26-21 47-47 47-13 0-24-5-32-12l0 0-188-188c-8-8-13-20-13-33s5-25 13-33l188-188c8-7 19-12 32-12 26 0 47 21 47 47 0 12-5 23-13 32l0 0z m217 654c0 0-1 0-1 0-85 0-165-22-235-60l2 1c-9-5-16-16-16-27 0-18 14-32 31-32 6 0 11 2 15 4l0 0c59 32 129 52 203 52 0 0 1 0 1 0h0c242 0 437-196 437-438s-195-438-437-438v0c0 0-1 0-1 0-74 0-144 20-205 53l2-1c-4 2-9 4-15 4-17 0-31-14-31-32 0-11 6-22 16-27l0 0c68-37 148-59 233-59 0 0 1 0 1 0h0c276 0 500 224 500 500s-224 500-500 500v0z" horiz-adv-x="1000" />
<glyph glyph-name="exchange" unicode="&#xf0ec;" d="M217 379c8-7 19-12 32-12 26 0 47 21 47 47 0 12-5 23-13 32l0 0-107 107h761c26 0 47 21 47 47s-21 47-47 47v0h-761l107 107c8 9 13 20 13 32 0 26-21 47-47 47-13 0-24-5-32-12l0 0-188-188c-8-8-13-20-13-33s5-25 13-33l0 0z m566-58c-8 7-19 12-32 12-26 0-47-21-47-47 0-12 5-23 13-32l0 0 107-107h-761c-26 0-47-21-47-47s21-47 47-47v0h761l-107-107c-9-9-15-21-15-35 0-26 21-47 47-47 13 0 26 6 34 15l0 0 188 188c8 8 13 20 13 33s-5 25-13 33l0 0z" horiz-adv-x="1000" />
<glyph glyph-name="hand-o-down" unicode="&#xf0a7;" d="M625 850h-125c-93 0-181-52-224-131l-200-347c-27-46-12-108 31-133 24-13 50-17 74-11 21 6 40 20 51 40l81 139v-463c0-52 42-94 93-94s94 42 94 94c-1 66-1 158-1 225 10-4 21-6 32-6 47 0 84 28 92 69 11-4 22-7 33-7 47 0 84 29 92 69 11-4 22-6 33-6 54 0 94 37 94 87v225c0 138-112 250-250 250z m188-475c0-18-17-25-32-25-15 0-31 18-31 37 0 17-14 31-31 31s-31-14-31-31v-74c0-19-17-25-32-25-15 0-31 18-31 37 0 17-14 31-31 31s-31-14-31-31v-75c0-18-17-25-32-25-15 0-31 18-31 37 0 11-5 20-14 26-9 6-20 7-29 3-9-4-15-6-18-29h-1l0-12c-3-40-2-124 0-306 0-18-15-32-32-32s-31 14-31 32v463c0 29-19 53-46 60l-17 3c-22 0-42-12-54-32l-80-139c-3-5-8-9-14-11-7-2-17 0-25 5-14 8-18 32-9 48l201 347c32 61 99 100 169 100h125c103 0 188-85 188-188v-225z" horiz-adv-x="1000" />
<glyph glyph-name="hand-o-left" unicode="&#xf0a5;" d="M869 574l-347 200c-46 27-108 12-133-31-27-47-14-100 29-125l139-80h-463c-52 0-94-43-94-94s42-94 94-94c66 1 158 1 225 1-4-10-6-21-6-32 0-47 28-84 69-92-4-10-7-22-7-33 0-47 29-84 69-92-4-10-6-22-6-33 0-54 37-94 87-94h225c138 0 250 112 250 250v125c0 93-52 181-131 224z m69-349c0-103-85-187-188-187h-225c-18 0-25 16-25 31 0 16 18 31 37 31 17 0 31 14 31 31s-14 32-31 32h-74c-19 0-25 16-25 31 0 16 18 31 37 31 17 0 31 14 31 31s-14 32-31 32h-75c-18 0-25 16-25 31 0 16 18 31 37 31 11 0 20 5 26 14s7 20 3 30c-4 8-6 14-29 17v2l-11-1c-40 3-124 2-307 1-17 0-31 14-31 31s14 31 31 31h463c29 0 53 19 60 46 8 28-4 56-29 71l-139 80c-16 9-13 27-6 40 8 13 32 17 48 8l347-201c61-32 100-99 100-169v-125z" horiz-adv-x="1000" />
<glyph glyph-name="hand-o-right" unicode="&#xf0a4;" d="M906 538h-463l139 80c22 12 37 33 41 57 5 22 0 46-12 68-25 43-87 58-133 31l-346-200c-80-43-132-131-132-224v-125c0-138 112-250 250-250h225c50 0 88 40 88 94 0 11-3 23-7 33 40 8 69 45 69 92 0 11-2 23-7 33 41 8 70 45 70 92 0 11-3 22-7 32 67 0 159 0 225-1 52 0 94 42 94 94s-42 94-94 94z m1-125c-184 1-268 2-308-1l-11 1v-2c-23-3-25-9-29-17-4-10-3-21 3-30s15-14 26-14c19 0 37-15 37-31 0-15-7-31-25-31h-75c-17 0-31-14-31-32s14-31 31-31c19 0 38-15 38-31 0-15-7-31-26-31h-74c-17 0-31-14-31-32s14-31 31-31c19 0 37-15 37-31 0-15-7-31-25-31h-225c-103 0-187 84-187 187v125c0 70 38 137 99 170l347 200c6 3 13 5 20 5 11 0 23-5 28-14 5-8 6-16 5-24-1-6-5-11-11-15l-139-80c-25-15-37-43-29-71 7-27 31-46 60-46h463c18 0 32-14 32-31s-14-31-31-31z" horiz-adv-x="1000" />
<glyph glyph-name="hand-o-up" unicode="&#xf0a6;" d="M781 413c-11 0-22-3-33-7-8 40-45 69-92 69-11 0-22-2-33-7-8 41-45 70-92 70-11 0-22-3-32-7 0 67 0 159 1 225 0 52-42 94-94 94s-93-42-93-94v-463l-81 139c-12 22-33 37-57 41-22 5-46 0-68-12-43-25-58-87-31-133l200-346c43-80 131-132 224-132h125c138 0 250 112 250 250v225c0 50-40 88-94 88z m32-313c0-103-85-188-188-188h-125c-70 0-137 39-170 100l-200 347c-9 16-5 40 9 48 6 4 13 6 19 6l5-1c7-1 12-5 15-11l80-139c15-25 43-37 71-29 27 7 46 31 46 60v463c0 18 14 32 31 32s32-14 32-31c-2-184-3-268 0-308l0-11h1c3-23 9-25 18-29 9-4 20-3 29 3s14 15 14 26c0 19 16 37 31 37 15 0 32-7 32-25v-75c0-17 14-31 31-31s31 14 31 31c0 19 16 38 31 38 15 0 32-7 32-26v-74c0-17 14-31 31-31s31 14 31 31c0 19 16 37 31 37 15 0 32-7 32-25v-225z" horiz-adv-x="1000" />
<glyph glyph-name="long-arrow-down" unicode="&#xf175;" d="M783 196c-8 8-20 13-33 13s-25-5-33-13l-170-170v762c0 25-21 46-47 46s-47-21-47-46v0-762l-170 170c-8 9-21 15-34 15-26 0-47-21-47-47 0-14 6-26 15-35l0 0 250-250c8-8 20-13 33-13s25 5 33 13l250 250c9 9 14 21 14 34s-5 24-14 33l0 0z" horiz-adv-x="1000" />
<glyph glyph-name="long-arrow-left" unicode="&#xf177;" d="M938 397h-762l170 170c9 8 15 21 15 34 0 26-21 47-47 47-14 0-26-6-35-15l0 0-250-250c-8-8-13-20-13-33s5-25 13-33l250-250c9-8 20-13 32-13 26 0 47 21 47 47 0 13-5 24-12 32l0 0-170 170h762c25 0 46 21 46 47s-21 47-46 47v0z" horiz-adv-x="1000" />
<glyph glyph-name="long-arrow-right" unicode="&#xf178;" d="M971 383l-250 250c-9 9-21 15-35 15-26 0-47-21-47-47 0-13 6-25 15-34l0 0 170-170h-762c-25 0-46-21-46-47s21-47 46-47v0h762l-170-170c-9-8-15-21-15-34 0-26 21-47 47-47 14 0 26 6 35 15l0 0 250 250c8 8 13 20 13 33s-5 25-13 33l0 0z" horiz-adv-x="1000" />
<glyph glyph-name="long-arrow-up" unicode="&#xf176;" d="M783 571l-250 250c-8 8-20 13-33 13s-25-5-33-13l-250-250c-9-9-15-21-15-35 0-26 21-47 47-47 13 0 26 6 34 15l0 0 170 170v-762c0-25 21-46 47-46s47 21 47 46v0 762l170-170c8-7 19-12 32-12 26 0 47 21 47 47 0 12-5 23-13 32l0 0z" horiz-adv-x="1000" />
<glyph glyph-name="page-bottom" unicode="&#xe90d;" d="M467 317c8-9 20-14 33-14s25 5 33 14l375 375c8 8 13 19 13 32 0 26-21 47-47 47-13 0-24-5-32-13l0 0-342-342-342 342c-8 8-19 13-32 13-26 0-47-21-47-47 0-13 5-24 13-32l0 0z m408-295h-750c-26 0-47-21-47-47s21-47 47-47v0h750c26 0 47 21 47 47s-21 47-47 47v0z" horiz-adv-x="1000" />
<glyph glyph-name="page-first" unicode="&#xe90e;" d="M566 350l342 342c8 8 13 19 13 32 0 26-21 47-47 47-13 0-24-5-32-13l0 0-375-375c-9-8-14-20-14-33s5-25 14-33l375-375c8-8 19-13 32-13 26 0 47 21 47 47 0 12-5 24-13 32l0 0z m-441 422c-26 0-47-21-47-47v0-750c0-26 21-47 47-47s47 21 47 47v0 750c0 26-21 47-47 47v0z" horiz-adv-x="1000" />
<glyph glyph-name="page-last" unicode="&#xe90f;" d="M158 758c-8 8-19 13-32 13-26 0-47-21-47-47 0-13 5-24 13-32l0 0 342-342-342-342c-9-9-15-21-15-34 0-26 21-47 47-47 13 0 26 6 34 15l0 0 375 375c9 8 14 20 14 33s-5 25-14 33l0 0z m717 14c-26 0-47-21-47-47v0-750c0-26 21-47 47-47s47 21 47 47v0 750c0 26-21 47-47 47v0z" horiz-adv-x="1000" />
<glyph glyph-name="page-top" unicode="&#xe910;" d="M533 383c-8 9-20 14-33 14s-25-5-33-14l-375-375c-8-8-13-19-13-32 0-26 21-47 47-47 13 0 24 5 32 13l0 0 342 342 342-342c8-8 20-13 32-13 26 0 47 21 47 47 0 13-5 24-13 32l0 0z m-408 295h750c26 0 47 21 47 47s-21 47-47 47v0h-750c-26 0-47-21-47-47s21-47 47-47v0z" horiz-adv-x="1000" />
<glyph glyph-name="awesome-face" unicode="&#xea8b;" d="M38 475h362c0 0 0 0 0 0 15 0 27 11 30 25l0 0c5 21 7 44 8 69l0 0c0 155-99 281-219 281s-219-126-219-281c0-25 3-48 8-71l-1 2c3-14 16-25 31-25 0 0 0 0 0 0h0z m181 313c12-1 23-2 34-6l-1 0c-38-12-65-47-65-89 0-52 42-94 93-94 36 0 68 21 83 51l1 0c7-24 11-52 11-81 0 0 0 0 0 0v0c0-11-1-22-2-33l0 2h-308c-2 9-2 20-2 31v0c0 120 70 219 156 219z m381-313h362c0 0 0 0 0 0 15 0 28 11 31 25l0 0c4 21 7 44 7 69l0 0c0 155-98 281-219 281s-218-126-218-281c0-25 2-48 7-71l0 2c3-14 15-25 30-25 0 0 0 0 0 0h0z m181 313c12-1 23-2 34-6l-1 0c-38-12-65-47-65-89 0-52 42-94 94-94 36 0 67 21 83 51l0 0c7-24 12-52 12-81 0 0 0 0 0 0v0c0-11-1-22-3-33l1 2h-309c-1 9-2 20-2 31v0c0 120 70 219 156 219z m184-438h-934c-17 0-31-14-31-31s14-31 31-31v0h40c39-252 233-438 460-438 236 0 436 200 465 465 0 1 0 3 0 4 0 17-14 31-31 31 0 0 0 0 0 0h0z m-434-438c-55 1-108 14-155 36l3-1c17 122 121 215 246 216h0c0 0 0 0 0 0 83 0 155-41 200-103l1 0c-69-89-175-145-294-148l-1 0z" horiz-adv-x="1000" />
<glyph glyph-name="emoji-angry" unicode="&#x1f621;" d="M500 850c-276 0-500-224-500-500s224-500 500-500 500 224 500 500-224 500-500 500z m0-938c-241 0-437 197-437 438s196 438 437 438 438-197 438-438c0-241-197-438-438-438z m-125 438c0-34-28-62-62-62s-63 28-63 62c0 35 28 63 63 63s62-28 62-63z m375 0c0-34-28-62-62-62s-63 28-63 62c0 35 28 63 63 63s62-28 62-63z m-469 188c38 0 74-19 101-52 6-7 15-11 24-11 7 0 14 2 20 7 13 11 15 31 4 44-39 48-92 74-149 74-17 0-31-14-31-31s14-31 31-31z m438 62c-57 0-110-26-149-74-11-13-9-33 4-44 6-5 13-7 20-7 9 0 18 4 24 11 27 33 63 52 101 52 17 0 31 14 31 31s-14 31-31 31z m-219-375c-95 0-182-56-221-143-7-16 0-35 16-42 15-7 34 0 41 16 29 65 94 107 164 107s136-42 165-107c5-12 17-18 29-18 4 0 8 0 12 2 16 7 23 26 16 42-39 87-126 143-222 143z" horiz-adv-x="1000" />
<glyph glyph-name="emoji-astonished" unicode="&#x1f632;" d="M500 850c-276 0-500-224-500-500s224-500 500-500 500 224 500 500-224 500-500 500z m0-938c-241 0-437 197-437 438s196 438 437 438 438-197 438-438-197-438-438-438z m250 501c0-35-28-63-62-63s-63 28-63 63c0 34 28 62 63 62s62-28 62-62z m-375 0c0-35-28-63-62-63s-63 28-63 63c0 34 28 62 63 62s62-28 62-62z m125-125c-69 0-125-57-125-125v-63c0-69 56-125 125-125s125 56 125 125v63c0 68-56 125-125 125z m63-188c0-34-29-62-63-62s-62 28-62 62v63c0 34 28 62 62 62s63-28 63-62v-63z m-286 439c7-1 14-1 21-1 53 0 101 27 134 76 10 14 6 33-8 43-14 10-34 6-44-8-24-37-57-53-94-48-18 2-33-10-36-27-2-17 10-33 27-35z m425-1c7 0 14 0 21 1 17 2 29 18 27 35s-18 29-35 27c-38-5-71 11-95 48-10 14-29 18-44 8s-18-29-8-43c33-49 81-76 134-76z" horiz-adv-x="1000" />
<glyph glyph-name="emoji-big-eyes-smile" unicode="&#x1f603;" d="M438 569c0-52-28-94-63-94s-62 42-62 94c0 52 28 94 62 94s63-42 63-94z m250 0c0-52-28-94-63-94s-62 42-62 94c0 52 28 94 62 94s63-42 63-94z m-188 281c-276 0-500-224-500-500s224-500 500-500 500 224 500 500-224 500-500 500z m0-938c-241 0-437 197-437 438s196 438 437 438 438-197 438-438-197-438-438-438z m309 474c-2 15-15 27-31 27h-556c-16 0-29-12-31-27 0 0-3-24-3-36 0-172 140-312 312-312s313 140 313 312c0 12-4 36-4 36z m-309-286c-92 0-172 51-215 125h430c-43-74-123-125-215-125z m241 188h-482c-5 20-9 40-9 62h500c0-22-4-42-9-62z" horiz-adv-x="1000" />
<glyph glyph-name="emoji-big-frown" unicode="&#x1f626;" d="M500 850c-276 0-500-224-500-500s224-500 500-500 500 224 500 500-224 500-500 500z m0-938c-241 0-437 197-437 438s196 438 437 438 438-197 438-438-197-438-438-438z m-125 438c0-34-28-62-62-62s-63 28-63 62c0 35 28 63 63 63s62-28 62-63z m375 0c0-34-28-62-62-62s-63 28-63 62c0 35 28 63 63 63s62-28 62-63z m-250-125c-68 0-132-27-171-73-17-19-21-45-11-68 13-28 44-46 79-46h206c35 0 66 18 79 46 10 23 6 49-10 68-39 46-104 73-172 73z m103-125h-206c-14 0-22 8-21 12 27 31 74 51 124 51s97-20 125-52c0-3-8-11-22-11z" horiz-adv-x="1000" />
</font>
</defs>
</svg>
